VA • Global Goal: Unite for Our Future - The Concert [2020, Pop Show, HDTV, 1080i]

Ответить на тему
Статистика раздачи
Размер:  8.36 GB   |    Зарегистрирован:  16 дней   |    Скачан:  0 раз

Полного источника не было: Никогда

 
   
 
 
Автор Сообщение

star21 ®

Пол: Женский

Стаж: 4 года 8 месяцев

Сообщений: 551945

Откуда: Екатеринбург

Создавать темы 29-Июн-2020 22:55

[Цитировать]

5 дней на раздаче!
Global Goa: Unite for Our Futurel
The Concert


Жанр: Pop Show
Продолжительность: 01:30:16
Год выпуска: 2020
Качество: HDTV
Разрешение видео/развертка: 1080i
Контейнер: TS
Видео кодек: MPEG2
Аудио кодек: AC3
Видео: MPEG2 Video 1920x1080 29.97fps 12.0 Mb/s
Аудио 1: Dolby AC3 48000Hz 6ch 384kbps
Аудио 2: Dolby AC3 48000Hz stereo 192kbps

Треклист


Hosted by Dwayne Johnson, join us for performances by Shakira, Coldplay, Usher, Jennifer Hudson, Justin Bieber and Quavo, Miley Cyrus, Chloe x Halle, J Balvin, Yemi Alade, Christine and the Queen, and more as we celebrate our campaign to get funding for the development and equitable distribution of COVID-19 therapeutics, tests and vaccines for everyone, everywhere. June 27, 2020
• •
Jennifer Hudson - Where Peaceful Waters Flow
For Love Chor - Freedom
Miley Cyrus - Help!
Usher - I Cry
Shakira - Sale El Sol
Kirk Franklin & Tori Kelly
Justin Bieber and Quavo - Intentions
Coldplay - Paradise
Christine and the Queens - La Vita Nuova
J Balvin ft. The Dreamcatchers - Que Carol & Mi Gente
Chloe x Halle - Rest Of Your Life
Yemi Alade - Shekere
J'Nai Bridges with Gustavo Dudamel (YOLA) - Heaven & Hes Got Whole World In His Hands

• • •

Отчёт MediaInfo / BDInfo

GeneralID                             : 1 (0x1)Complete name                  : F:\VA - Global Goal - Unite for Our Future - The Concert 2020.tsFormat                         : MPEG-TSFile size                      : 8.36 GiBDuration                       : 1 h 30 minOverall bit rate mode          : VariableOverall bit rate               : 13.3 Mb/sLaw rating                     : N/A
VideoID : 1011 (0x3F3)Menu ID : 1 (0x1)Format : MPEG VideoFormat version : Version 2Format profile : Main@HighFormat settings : BVOPFormat settings, BVOP : YesFormat settings, Matrix : DefaultFormat settings, GOP : VariableCodec ID : 2Duration : 1 h 30 minBit rate mode : VariableBit rate : 12.0 Mb/sMaximum bit rate : 64.0 Mb/sWidth : 1 920 pixelsHeight : 1 080 pixelsDisplay aspect ratio : 16:9Active Format Description : Full frame 16:9 imageFrame rate : 29.970 (30000/1001) FPSColor space : YUVChroma subsampling : 4:2:0Bit depth : 8 bitsCompression mode : LossyBits/(Pixel*Frame) : 0.193Time code of first frame : 00:00:00;00Time code source : Group of pictures headerStream size : 7.58 GiB (91%)
Audio #1ID : 102 (0x66)Menu ID : 1 (0x1)Format : AC-3Format/Info : Audio Coding 3Commercial name : Dolby DigitalCodec ID : 129Duration : 1 h 30 minBit rate mode : ConstantBit rate : 384 kb/sChannel(s) : 6 channelsChannel layout : L R C LFE Ls RsSampling rate : 48.0 kHzFrame rate : 31.250 FPS (1536 SPF)Compression mode : LossyDelay relative to video : 1 msStream size : 248 MiB (3%)Language : EnglishService kind : Complete Main
Audio #2ID : 1013 (0x3F5)Menu ID : 1 (0x1)Format : AC-3Format/Info : Audio Coding 3Commercial name : Dolby DigitalCodec ID : 129Duration : 1 h 30 minBit rate mode : ConstantBit rate : 192 kb/sChannel(s) : 2 channelsChannel layout : L RSampling rate : 48.0 kHzFrame rate : 31.250 FPS (1536 SPF)Compression mode : LossyDelay relative to video : 1 msStream size : 124 MiB (1%)Language : SpanishService kind : Complete Main

Чтобы скачать этот контент, Вам необходимо:
1. Скачать и установить торрент-клиент [клик для Windows], (для мобильного найдите на Play Маркет).
2. Кликнуть по [Скачать]


Внимание.
Если проверка ВЫ НЕ РОБОТ - не работает, значит Вы используете устаревший браузер.
Установите актуальный браузер и повторно кликните по [Скачать]

Запрещён Яндекс браузер. Загрузка файлов им является ошибочной.
Безопасность: торрент-клиент разрешён АВ Касперского.

[asmlocator.ru].t748079.torrent 
Торрент: Зарегистрирован [ 2020-06-29 22:55 ] · E6225E91D35AC320D80069A049EBEFF281936BCC

Скачать .torrent

Скачать

21 KB

Статус: проверено
Скачан: 0 раз
Размер: 8.36 GB
terms.php
[Профиль] [ЛС]
Показать сообщения:    
Ответить на тему

Текущее время: 16-Июл 03:37

Часовой пояс: UTC ± 0



Вы не можете начинать темы
Вы не можете отвечать на сообщения
Вы не можете редактировать свои сообщения
Вы не можете удалять свои сообщения
Вы не можете голосовать в опросах
Вы не можете прикреплять файлы к сообщениям
Вы можете скачивать файлы