(Шансон) [WEB] Михаил Гулько - Коллекция (4 релиза 2014-2016) FLAC (tracks), lossless

Ответить на тему
Статистика раздачи
Размер:  701 MB   |    Зарегистрирован:  2 дня 20 часов   |    Скачан:  0 раз

Полного источника не было: Никогда

 
   
 
 
Автор Сообщение

star21 ®

Пол: Женский

Стаж: 4 года 6 месяцев

Сообщений: 551945

Откуда: Екатеринбург

Создавать темы 22-Май-2020 00:40

[Цитировать]




Жанр: Шансон
Носитель: WEB
Год издания: 2014-2016
Страна исполнителя (группы): СССР/США
Аудиокодек: FLAC (*.flac)
Тип рипа: tracks
Продолжительность: 01:13:84
Источник: собственная покупка
Наличие сканов в содержимом раздачи: нет

2014 - Неспетые песни (48:52)

01. Павшим кадетам
02. Осень, осень, осень
03. Где мои 16 лет
04. Избушка
05. На Колыме
06. Прохоря
07. Золотые купола
08. Я тоскую (LIVE)
09. В Америке (В Америке тоже робеют осины (LIVE))
10. Письмо с фронта
11. Флаг
12. Мурка (2014)
13. Прости, Россия

Замер динамического диапазона (DR)

foobar2000 1.3.19 / Замер динамического диапазона (DR) 1.1.1Дата отчёта:  2020-05-20 23:26:40
--------------------------------------------------------------------------------Анализ: Михаил Гулько / Неспетые песни--------------------------------------------------------------------------------
DR Пики RMS Продолжительность трека--------------------------------------------------------------------------------DR7 -0.01 дБ -8.72 дБ 3:10 01-Павшим кадетамDR6 -0.01 дБ -7.01 дБ 3:34 02-Осень осень осеньDR7 -0.01 дБ -7.69 дБ 6:34 03-Где мои 16 летDR6 -0.50 дБ -7.66 дБ 3:06 04-ИзбушкаDR7 -0.01 дБ -8.64 дБ 3:21 05-На КолымеDR6 -0.10 дБ -7.86 дБ 2:22 06-ПрохоряDR5 -0.10 дБ -6.78 дБ 5:10 07-Золотые куполаDR8 -0.10 дБ -9.68 дБ 3:49 08-Я тоскую (LIVE)DR8 -0.10 дБ -10.36 дБ 3:19 09-В Америке тоже робеют осины (LIVE)DR6 -0.10 дБ -7.49 дБ 3:09 10-Письмо с фронтаDR7 -0.10 дБ -8.09 дБ 2:32 11-ФлагDR7 -0.01 дБ -7.89 дБ 4:33 12-Мурка 2014DR8 -0.01 дБ -9.68 дБ 4:13 13-Прости, Россия--------------------------------------------------------------------------------
Количество треков: 13Реальные значения DR: DR7
Частота: 44100 ГцКаналов: 2Разрядность: 16Битрейт: 985 кбит/сКодек: FLAC

Лог проверки качества

AUDIOCHECKER v2.0 beta (build 457) - by Dester - opdester@freemail.hu~~~~~~~~~~~~~~~~~~~~~~~~~~~~~~~~~~-=== DO NOT EDIT THIS FILE! ===-
Path: ...\2014 - Неспетые песни
01 -=- 01 Павшим кадетам.flac -=- CDDA (100%)02 -=- 02 Осень осень осень.flac -=- CDDA (99%)03 -=- 03 Где мои 16 лет.flac -=- CDDA (100%)04 -=- 04 Избушка.flac -=- CDDA (100%)05 -=- 05 На Колыме.flac -=- CDDA (100%)06 -=- 06 Прохоря.flac -=- CDDA (100%)07 -=- 07 Золотые купола.flac -=- CDDA (100%)08 -=- 08 Я тоскую (LIVE).flac -=- CDDA (54%)09 -=- 09 В Америке тоже робеют осины (LIVE).flac -=- CDDA (100%)10 -=- 10 Письмо с фронта.flac -=- CDDA (100%)11 -=- 11 Флаг.flac -=- CDDA (100%)12 -=- 12 Мурка 2014.flac -=- CDDA (100%)13 -=- 13 Прости Россия.flac -=- CDDA (100%)
Summary 96,38% CDDA
185538740

2015 - Неспетые песни-2 (40:07)

01. Балдоха (Гитара с треснувшею декой)
02. Берёзовый сок
03. Дружба (Когда простым и нежным взором)
04. Жакет
05. Заплутали мишки, заплутали
06. Мундирчик
07. На Тихорецкую
08. Посвящение Михаилу Кругу
09. Рiдна мати моя
10. Сиреневый туман
11. Товарищ Сталин
12. Я в весеннем лесу

Замер динамического диапазона (DR)

foobar2000 1.3.19 / Замер динамического диапазона (DR) 1.1.1Дата отчёта:  2020-05-20 23:28:43
--------------------------------------------------------------------------------Анализ: Михаил Гулько / Неспетые песни-2--------------------------------------------------------------------------------
DR Пики RMS Продолжительность трека--------------------------------------------------------------------------------DR7 -0.01 дБ -8.24 дБ 4:06 01-Балдоха (Гитара с треснувшею декой)DR7 -0.26 дБ -8.05 дБ 3:50 02-Березовый сокDR6 -0.26 дБ -6.61 дБ 2:16 03-Дружба (Когда Простым)DR7 -0.26 дБ -8.65 дБ 4:06 04-ЖакетDR6 -0.26 дБ -7.43 дБ 3:13 05-Заплутали МишкиDR7 -0.26 дБ -9.15 дБ 3:07 06-МундирчикDR7 -0.26 дБ -7.93 дБ 1:56 07-На ТихорецкуюDR6 -0.26 дБ -7.79 дБ 4:41 08-Посвящение Михаилу КругуDR7 -0.10 дБ -9.34 дБ 2:52 09-Рідна мати мояDR7 -0.01 дБ -8.87 дБ 4:32 10-Сиреневый ТуманDR10 -1.91 дБ -17.65 дБ 3:03 11-Товарищ СталинDR8 -0.26 дБ -9.45 дБ 2:25 12-Я в весеннем лесу--------------------------------------------------------------------------------
Количество треков: 12Реальные значения DR: DR7
Частота: 44100 ГцКаналов: 2Разрядность: 16Битрейт: 946 кбит/сКодек: FLAC

Лог проверки качества

AUDIOCHECKER v2.0 beta (build 457) - by Dester - opdester@freemail.hu~~~~~~~~~~~~~~~~~~~~~~~~~~~~~~~~~~-=== DO NOT EDIT THIS FILE! ===-
Path: ...\2015 - Неспетые песни-2
01 -=- 01 Балдоха (Гитара с треснувшею декой).flac -=- MPEG (100%)02 -=- 02 Березовый сок.flac -=- CDDA (100%)03 -=- 03 Дружба (Когда Простым).flac -=- CDDA (100%)04 -=- 04 Жакет.flac -=- CDDA (100%)05 -=- 05 Заплутали Мишки.flac -=- CDDA (100%)06 -=- 06 Мундирчик.flac -=- CDDA (99%)07 -=- 07 На Тихорецкую.flac -=- CDDA (100%)08 -=- 08 Посвящение Михаилу Кругу.flac -=- CDDA (100%)09 -=- 09 Рідна мати моя.flac -=- CDDA (100%)10 -=- 10 Сиреневый Туман.flac -=- MPEG (95%)11 -=- 11 Товарищ Сталин.flac -=- CDDA (100%)12 -=- 12 Я в весеннем лесу.flac -=- CDDA (100%)
Summary 83,67% CDDA
99202884

Скриншот спектра частот сомнительных треков

2015 - Сокольники (Single) (04:41)

01. Сокольники

Замер динамического диапазона (DR)

foobar2000 1.3.19 / Замер динамического диапазона (DR) 1.1.1Дата отчёта:  2020-05-20 23:29:46
--------------------------------------------------------------------------------Статистика для: 01-СокольникиКоличество сэмплов: 12385622Продолжительность: 4:41--------------------------------------------------------------------------------
Левый Правый
Пики: -0.26 дБ --- -0.26 дБСредний RMS: -7.57 дБ --- -7.49 дБDR канала: 5.98 дБ --- 5.95 дБ--------------------------------------------------------------------------------
Реальные значения DR: DR6
Частота: 44100 ГцКаналов: 2Разрядность: 16Битрейт: 982 кбит/сКодек: FLAC

Лог проверки качества

AUDIOCHECKER v2.0 beta (build 457) - by Dester - opdester@freemail.hu~~~~~~~~~~~~~~~~~~~~~~~~~~~~~~~~~~-=== DO NOT EDIT THIS FILE! ===-
Path: ...\2015 - Сокольники (Single)
01 -=- 01 Сокольники.flac -=- CDDA (100%)
234286244

2016 - На Волю (Single) (04:35)

01. На Волю

Замер динамического диапазона (DR)

foobar2000 1.3.19 / Замер динамического диапазона (DR) 1.1.1Дата отчёта:  2020-05-20 23:31:05
--------------------------------------------------------------------------------Статистика для: 01-На ВолюКоличество сэмплов: 12137087Продолжительность: 4:35--------------------------------------------------------------------------------
Левый Правый
Пики: -0.10 дБ --- -0.10 дБСредний RMS: -6.81 дБ --- -6.70 дБDR канала: 5.86 дБ --- 5.73 дБ--------------------------------------------------------------------------------
Реальные значения DR: DR6
Частота: 44100 ГцКаналов: 2Разрядность: 16Битрейт: 1033 кбит/сКодек: FLAC

Лог проверки качества

AUDIOCHECKER v2.0 beta (build 457) - by Dester - opdester@freemail.hu~~~~~~~~~~~~~~~~~~~~~~~~~~~~~~~~~~-=== DO NOT EDIT THIS FILE! ===-
Path: ...\2016 - На Волю (Single)
01 -=- 01 На Волю.flac -=- CDDA (100%)
218529812

Чтобы скачать этот контент, Вам необходимо:
1. Скачать и установить торрент-клиент [клик для Windows], (для мобильного найдите на Play Маркет).
2. Кликнуть по [Скачать]


Внимание.
Если проверка ВЫ НЕ РОБОТ - не работает, значит Вы используете устаревший браузер.
Установите актуальный браузер и повторно кликните по [Скачать]

Запрещён Яндекс браузер. Загрузка файлов им является ошибочной.
Безопасность: торрент-клиент разрешён АВ Касперского.

[asmlocator.ru].t736622.torrent 
Торрент: Зарегистрирован [ 2020-05-22 00:40 ] · A84FB2340247057582E3219D6248242BA16A0703

Скачать .torrent

Скачать

18 KB

Статус: проверено
Скачан: 0 раз
Размер: 701 MB
terms.php
[Профиль] [ЛС]
Показать сообщения:    
Ответить на тему

Текущее время: 24-Май 21:13

Часовой пояс: UTC ± 0



Вы не можете начинать темы
Вы не можете отвечать на сообщения
Вы не можете редактировать свои сообщения
Вы не можете удалять свои сообщения
Вы не можете голосовать в опросах
Вы не можете прикреплять файлы к сообщениям
Вы можете скачивать файлы
Верим фактам, а не вранью Путина! Факт, что Правительство ведёт Россию к истреблению.
Так как численность населения падает, даже не смотря на приток эмигрантов!
Русская нация вымирает и вырождается, смешиваясь с эмигрантами!
Факт, что военных и граждан предприятий заставляют голосовать за партию Единая Россия и Путина
ПОД СТРАХОМ УВОЛЬНЕНИЯ!
Нам не нужно Правительство, блокирующее личную жизнь, интернет, нарушающее сохранность данных.
Все эти действия финансируются за счёт народа!