(Roots Reggae) [CD] Count Ossie & The Mystic Revelation Of Rastafari - The Original Complete Grounation (2 CD) - 2007, FLAC (tracks+.cue), lossless

Ответить на тему
Статистика раздачи
Размер:  315 MB   |    Зарегистрирован:  2 дня 21 час   |    Скачан:  0 раз

Полного источника не было: Никогда

 
   
 
 
Автор Сообщение

star21 ®

Пол: Женский

Стаж: 4 года 6 месяцев

Сообщений: 551945

Откуда: Екатеринбург

Создавать темы 22-Май-2020 00:40

[Цитировать]

Count Ossie & The Mystic Revelation Of Rastafari / The Original Complete Grounation
Жанр: Roots Reggae
Носитель: CD
Страна-производитель диска (релиза): Italy
Год издания: 2007
Издатель (лейбл): Retro Double
Номер по каталогу: 2X604
Аудиокодек: FLAC (*.flac)
Тип рипа: tracks+.cue
Продолжительность: 01:25:09
Источник: israbox
Наличие сканов в содержимом раздачи: нет
Треклист:

CD1 (00:42:50)

1-1 Bongo Man 4:50
1-2 Narration 13:05
1-3 Malorat (Passin' Thru) 3:30
1-4 Poem 2:40
1-5 Four Hundred Years 4:28
1-6 Poem 1:05
1-7 Song 2:00
1-8 Lumba 7:05
1-9 Way Back Home 4:50

Лог создания рипа

Exact Audio Copy V1.0 beta 3 from 29. August 2011
EAC extraction logfile from 8. March 2013, 20:57
Count Ossie &The Mystic Revelation of Rastafari / The Original Complete Grounation - Disc 1
Used drive : HL-DT-STDVDRAM_GH15N Adapter: 1 ID: 0
Read mode : SecureUtilize accurate stream : YesDefeat audio cache : YesMake use of C2 pointers : No
Read offset correction : 667Overread into Lead-In and Lead-Out : NoFill up missing offset samples with silence : YesDelete leading and trailing silent blocks : NoNull samples used in CRC calculations : YesUsed interface : Native Win32 interface for Win NT & 2000Gap handling : Appended to previous track
Used output format : User Defined EncoderSelected bitrate : 1024 kBit/sQuality : HighAdd ID3 tag : NoCommand line compressor : C:\Program Files (x86)\Exact Audio Copy\Flac\flac.exeAdditional command line options : -8 -V -T "ARTIST=%artist%" -T "TITLE=%title%" -T "ALBUM=%albumtitle%" -T "DATE=%year%" -T "TRACKNUMBER=%tracknr%" -T "GENRE=%genre%" -T "PERFORMER=%albuminterpret%" -T "COMPOSER=%composer%" %haslyrics%--tag-from-file=LYRICS="%lyricsfile%"%haslyrics% -T "ALBUMARTIST=%albumartist%" -T "DISCNUMBER=%cdnumber%" -T "TOTALDISCS=%totalcds%" -T "TOTALTRACKS=%numtracks%" -T "COMMENT=%comment%" %source% -o %dest%
TOC of the extracted CD
Track | Start | Length | Start sector | End sector --------------------------------------------------------- 1 | 0:00.32 | 4:47.18 | 32 | 21574 2 | 4:47.50 | 12:43.47 | 21575 | 78846 3 | 17:31.22 | 3:30.30 | 78847 | 94626 4 | 21:01.52 | 2:44.23 | 94627 | 106949 5 | 23:46.00 | 4:28.70 | 106950 | 127119 6 | 28:14.70 | 1:02.57 | 127120 | 131826 7 | 29:17.52 | 1:57.43 | 131827 | 140644 8 | 31:15.20 | 7:05.20 | 140645 | 172539 9 | 38:20.40 | 4:34.62 | 172540 | 193151
Track 1
Filename C:\Users\Bob\Desktop\Count Ossie\01 - Bongo Man.wav
Pre-gap length 0:00:02.42
Peak level 100.0 % Extraction speed 4.7 X Track quality 100.0 % Test CRC 5EFFB97F Copy CRC 5EFFB97F Accurately ripped (confidence 2) [7373F76F] (AR v1) Copy OK
Track 2
Filename C:\Users\Bob\Desktop\Count Ossie\02 - Narration.wav
Pre-gap length 0:00:00.53
Peak level 93.7 % Extraction speed 6.1 X Track quality 100.0 % Test CRC F2B00EDF Copy CRC F2B00EDF Accurately ripped (confidence 2) [6F2CDD4B] (AR v1) Copy OK
Track 3
Filename C:\Users\Bob\Desktop\Count Ossie\03 - Malorat (Passin' Thru).wav
Peak level 99.8 % Extraction speed 5.5 X Track quality 100.0 % Test CRC EF01B8E1 Copy CRC EF01B8E1 Accurately ripped (confidence 2) [92C06736] (AR v1) Copy OK
Track 4
Filename C:\Users\Bob\Desktop\Count Ossie\04 - Poem.wav
Pre-gap length 0:00:04.60
Peak level 61.8 % Extraction speed 4.5 X Track quality 99.9 % Test CRC 3379F359 Copy CRC 3379F359 Accurately ripped (confidence 2) [E6DD7A6C] (AR v1) Copy OK
Track 5
Filename C:\Users\Bob\Desktop\Count Ossie\05 - Four Hundred Years.wav
Pre-gap length 0:00:02.70
Peak level 80.1 % Extraction speed 5.7 X Track quality 99.9 % Test CRC 14E57A2C Copy CRC 14E57A2C Accurately ripped (confidence 2) [C5060D6E] (AR v1) Copy OK
Track 6
Filename C:\Users\Bob\Desktop\Count Ossie\06 - Poem.wav
Pre-gap length 0:00:02.53
Peak level 66.3 % Extraction speed 3.1 X Track quality 99.8 % Test CRC 8C275488 Copy CRC 8C275488 Accurately ripped (confidence 2) [863AD642] (AR v1) Copy OK
Track 7
Filename C:\Users\Bob\Desktop\Count Ossie\07 - Song.wav
Pre-gap length 0:00:05.09
Peak level 72.5 % Extraction speed 6.1 X Track quality 100.0 % Test CRC 69C27FD5 Copy CRC 69C27FD5 Accurately ripped (confidence 2) [B625B76F] (AR v1) Copy OK
Track 8
Filename C:\Users\Bob\Desktop\Count Ossie\08 - Lumba.wav
Pre-gap length 0:00:04.46
Peak level 100.0 % Extraction speed 6.8 X Track quality 99.9 % Test CRC 18F4A1CB Copy CRC 18F4A1CB Accurately ripped (confidence 2) [3C5A29CA] (AR v1) Copy OK
Track 9
Filename C:\Users\Bob\Desktop\Count Ossie\09 - Way back home.wav
Pre-gap length 0:00:02.20
Peak level 83.0 % Extraction speed 7.5 X Track quality 100.0 % Test CRC 258CABAF Copy CRC 258CABAF Accurately ripped (confidence 2) [432CD9D6] (AR v1) Copy OK
All tracks accurately ripped
No errors occurred
End of status report
==== Log checksum 853814B8445C52BF7B62A3902B1EAFF10BC138B7902AB8FD5F89A08DFE3C5500 ====

Содержание индексной карты (.CUE)

REM GENRE ReggaeREM DATE 2001REM DISCID 830A0F09REM COMMENT "ExactAudioCopy v1.0b3"PERFORMER "Count Ossie &The Mystic Revelation of Rastafari"TITLE "The Original Complete Grounation - Disc 1"FILE "01 - Bongo Man.wav" WAVE  TRACK 01 AUDIO    TITLE "Bongo Man"    PERFORMER "Count Ossie &The Mystic Revelation of Rastafari"    PREGAP 00:00:32    INDEX 01 00:00:00  TRACK 02 AUDIO    TITLE "Narration"    PERFORMER "Count Ossie &The Mystic Revelation of Rastafari"    INDEX 00 04:46:53FILE "02 - Narration.wav" WAVE    INDEX 01 00:00:00FILE "03 - Malorat (Passin' Thru).wav" WAVE  TRACK 03 AUDIO    TITLE "Malorat (Passin' Thru)"    PERFORMER "Count Ossie &The Mystic Revelation of Rastafari"    INDEX 01 00:00:00  TRACK 04 AUDIO    TITLE "Poem"    PERFORMER "Count Ossie &The Mystic Revelation of Rastafari"    INDEX 00 03:25:60FILE "04 - Poem.wav" WAVE    INDEX 01 00:00:00  TRACK 05 AUDIO    TITLE "Four Hundred Years"    PERFORMER "Count Ossie &The Mystic Revelation of Rastafari"    INDEX 00 02:41:45FILE "05 - Four Hundred Years.wav" WAVE    INDEX 01 00:00:00  TRACK 06 AUDIO    TITLE "Poem"    PERFORMER "Count Ossie &The Mystic Revelation of Rastafari"    INDEX 00 04:26:30FILE "06 - Poem.wav" WAVE    INDEX 01 00:00:00  TRACK 07 AUDIO    TITLE "Song"    PERFORMER "Count Ossie &The Mystic Revelation of Rastafari"    INDEX 00 00:57:50FILE "07 - Song.wav" WAVE    INDEX 01 00:00:00  TRACK 08 AUDIO    TITLE "Lumba"    PERFORMER "Count Ossie &The Mystic Revelation of Rastafari"    INDEX 00 01:53:08FILE "08 - Lumba.wav" WAVE    INDEX 01 00:00:00  TRACK 09 AUDIO    TITLE "Way back home"    PERFORMER "Count Ossie &The Mystic Revelation of Rastafari"    INDEX 00 07:03:05FILE "09 - Way back home.wav" WAVE    INDEX 01 00:00:00

CD2 (00:42:19)

2-1 Ethiopian Serenade 4:20
2-2 Oh Carolina 3:30
2-3 So Long 4:45
2-4 Grounation 30:00

Лог создания рипа

Exact Audio Copy V1.0 beta 3 from 29. August 2011
EAC extraction logfile from 8. March 2013, 21:54
Count Ossie and The Mystic Revelation of Rastafari / The Original Complete Grounation - Disc 2
Used drive : HL-DT-STDVDRAM_GH15N Adapter: 1 ID: 0
Read mode : SecureUtilize accurate stream : YesDefeat audio cache : YesMake use of C2 pointers : No
Read offset correction : 667Overread into Lead-In and Lead-Out : NoFill up missing offset samples with silence : YesDelete leading and trailing silent blocks : NoNull samples used in CRC calculations : YesUsed interface : Native Win32 interface for Win NT & 2000Gap handling : Appended to previous track
Used output format : User Defined EncoderSelected bitrate : 1024 kBit/sQuality : HighAdd ID3 tag : NoCommand line compressor : C:\Program Files (x86)\Exact Audio Copy\Flac\flac.exeAdditional command line options : -8 -V -T "ARTIST=%artist%" -T "TITLE=%title%" -T "ALBUM=%albumtitle%" -T "DATE=%year%" -T "TRACKNUMBER=%tracknr%" -T "GENRE=%genre%" -T "PERFORMER=%albuminterpret%" -T "COMPOSER=%composer%" %haslyrics%--tag-from-file=LYRICS="%lyricsfile%"%haslyrics% -T "ALBUMARTIST=%albumartist%" -T "DISCNUMBER=%cdnumber%" -T "TOTALDISCS=%totalcds%" -T "TOTALTRACKS=%numtracks%" -T "COMMENT=%comment%" %source% -o %dest%
TOC of the extracted CD
Track | Start | Length | Start sector | End sector --------------------------------------------------------- 1 | 0:00.32 | 4:12.23 | 32 | 18954 2 | 4:12.55 | 3:31.60 | 18955 | 34839 3 | 7:44.40 | 4:46.50 | 34840 | 56339 4 | 12:31.15 | 29:50.17 | 56340 | 190606
Track 1
Filename C:\Users\Bob\Desktop\Nouveau dossier\01 - Ethiopian Serenade.wav
Pre-gap length 0:00:02.42
Peak level 89.9 % Extraction speed 3.7 X Track quality 99.9 % Test CRC FC2D336C Copy CRC FC2D336C Cannot be verified as accurate (confidence 2) [0A025AED], AccurateRip returned [A77E6503] (AR v2) Copy OK
Track 2
Filename C:\Users\Bob\Desktop\Nouveau dossier\02 - Oh Carolina.wav
Pre-gap length 0:00:02.70
Peak level 89.2 % Extraction speed 3.9 X Track quality 99.9 % Test CRC 7B7ABB70 Copy CRC 7B7ABB70 Cannot be verified as accurate (confidence 2) [F3BB68C3], AccurateRip returned [D0F6D107] (AR v2) Copy OK
Track 3
Filename C:\Users\Bob\Desktop\Nouveau dossier\03 - So Long.wav
Pre-gap length 0:00:02.66
Peak level 86.8 % Extraction speed 5.4 X Track quality 100.0 % Test CRC F23DF1AD Copy CRC F23DF1AD Cannot be verified as accurate (confidence 2) [E18F5457], AccurateRip returned [9DBDADC3] (AR v2) Copy OK
Track 4
Filename C:\Users\Bob\Desktop\Nouveau dossier\04 - Grounation.wav
Pre-gap length 0:00:02.70
Peak level 60.4 % Extraction speed 7.3 X Track quality 100.0 % Test CRC 9C2B1A2B Copy CRC 9C2B1A2B Cannot be verified as accurate (confidence 2) [CB7C91DC], AccurateRip returned [41362DE6] (AR v2) Copy OK
No tracks could be verified as accurateYou may have a different pressing from the one(s) in the database
No errors occurred
End of status report
==== Log checksum 58F8EE71900ED71584C099EB3C2FB0AED111551849F6EC80D3F572369305C381 ====

Содержание индексной карты (.CUE)

REM GENRE ReggaeREM DATE 2001REM DISCID 2C09ED04REM COMMENT "ExactAudioCopy v1.0b3"PERFORMER "Count Ossie and The Mystic Revelation of Rastafari"TITLE "The Original Complete Grounation - Disc 2"FILE "01 - Ethiopian Serenade.wav" WAVE  TRACK 01 AUDIO    TITLE "Ethiopian Serenade"    PERFORMER "Count Ossie and The Mystic Revelation of Rastafari"    PREGAP 00:00:32    INDEX 01 00:00:00  TRACK 02 AUDIO    TITLE "Oh Carolina"    PERFORMER "Count Ossie and The Mystic Revelation of Rastafari"    INDEX 00 04:09:45FILE "02 - Oh Carolina.wav" WAVE    INDEX 01 00:00:00  TRACK 03 AUDIO    TITLE "So Long"    PERFORMER "Count Ossie and The Mystic Revelation of Rastafari"    INDEX 00 03:29:10FILE "03 - So Long.wav" WAVE    INDEX 01 00:00:00  TRACK 04 AUDIO    TITLE "Grounation"    PERFORMER "Count Ossie and The Mystic Revelation of Rastafari"    INDEX 00 04:43:72FILE "04 - Grounation.wav" WAVE    INDEX 01 00:00:00

Чтобы скачать этот контент, Вам необходимо:
1. Скачать и установить торрент-клиент [клик для Windows], (для мобильного найдите на Play Маркет).
2. Кликнуть по [Скачать]


Внимание.
Если проверка ВЫ НЕ РОБОТ - не работает, значит Вы используете устаревший браузер.
Установите актуальный браузер и повторно кликните по [Скачать]

Запрещён Яндекс браузер. Загрузка файлов им является ошибочной.
Безопасность: торрент-клиент разрешён АВ Касперского.

[asmlocator.ru].t736619.torrent 
Торрент: Зарегистрирован [ 2020-05-22 00:40 ] · 0E69DA6770CAC65ECCEA3AE6AF994507F59B2BE6

Скачать .torrent

Скачать

14 KB

Статус: проверено
Скачан: 0 раз
Размер: 315 MB
terms.php
[Профиль] [ЛС]
Показать сообщения:    
Ответить на тему

Текущее время: 24-Май 21:40

Часовой пояс: UTC ± 0



Вы не можете начинать темы
Вы не можете отвечать на сообщения
Вы не можете редактировать свои сообщения
Вы не можете удалять свои сообщения
Вы не можете голосовать в опросах
Вы не можете прикреплять файлы к сообщениям
Вы можете скачивать файлы
Верим фактам, а не вранью Путина! Факт, что Правительство ведёт Россию к истреблению.
Так как численность населения падает, даже не смотря на приток эмигрантов!
Русская нация вымирает и вырождается, смешиваясь с эмигрантами!
Факт, что военных и граждан предприятий заставляют голосовать за партию Единая Россия и Путина
ПОД СТРАХОМ УВОЛЬНЕНИЯ!
Нам не нужно Правительство, блокирующее личную жизнь, интернет, нарушающее сохранность данных.
Все эти действия финансируются за счёт народа!