(Funk) [CD] Kool & The Gang - Wild And Peaceful - 1996, FLAC (tracks+.cue), lossless

Ответить на тему
Статистика раздачи
Размер:  247 MB   |    Зарегистрирован:  4 дня   |    Скачан:  0 раз

Полного источника не было: Никогда

 
   
 
 
Автор Сообщение

star21 ®

Пол: Женский

Стаж: 4 года 6 месяцев

Сообщений: 551945

Откуда: Екатеринбург

Создавать темы 19-Май-2020 22:35

[Цитировать]

Kool & The Gang / Wild And Peaceful
Жанр: Funk
Носитель: CD
Страна-производитель диска (релиза): US
Год издания: 1996
Издатель (лейбл): Mercury ‎
Номер по каталогу: 314 522 082-2
Аудиокодек: FLAC (*.flac)
Тип рипа: tracks+.cue
Продолжительность: 00:37:38
Источник: локальная сеть
Наличие сканов в содержимом раздачи: да
Треклист:
1 Funky Stuff
2 More Funky Stuff
3 Jungle Boogie
4 Heaven At Once
5 Hollywood Swinging
6 This Is You, This Is Me
7 Life Is What You Make It
8 Wild And Peaceful

Лог создания рипа

Exact Audio Copy V0.99 prebeta 3 from 28. July 2007
EAC extraction logfile from 28. June 2009, 18:29
Kool and the Gang / Wild And Peaceful
Used drive : TSSTcorpCDDVDW SN-S083B Adapter: 2 ID: 0
Read mode : SecureUtilize accurate stream : YesDefeat audio cache : YesMake use of C2 pointers : No
Read offset correction : 6Overread into Lead-In and Lead-Out : NoFill up missing offset samples with silence : YesDelete leading and trailing silent blocks : NoNull samples used in CRC calculations : YesUsed interface : Installed external ASPI interfaceGap handling : Appended to previous track
Used output format : User Defined EncoderSelected bitrate : 768 kBit/sQuality : HighAdd ID3 tag : NoCommand line compressor : C:\Program Files\Exact Audio Copy\FLAC\FLAC.EXEAdditional command line options : -8 -V -T "ARTIST=%a" -T "TITLE=%t" -T "ALBUM=%g" -T "DATE=%y" -T "TRACKNUMBER=%n" -T "TOTALTRACKS=%x" -T "GENRE=%m" -T "ALBUMARTIST=%v" -T "ALBUM ARTIST=%v" -T "COMMENT=EAC V0.99 prebeta 4, Secure Mode, Test & Copy, Accurat
TOC of the extracted CD
Track | Start | Length | Start sector | End sector --------------------------------------------------------- 1 | 0:00.00 | 3:03.55 | 0 | 13779 2 | 3:03.55 | 2:53.63 | 13780 | 26817 3 | 5:57.43 | 3:06.40 | 26818 | 40807 4 | 9:04.08 | 5:05.45 | 40808 | 63727 5 | 14:09.53 | 4:39.70 | 63728 | 84722 6 | 18:49.48 | 5:26.40 | 84723 | 109212 7 | 24:16.13 | 3:56.62 | 109213 | 126974 8 | 28:13.00 | 9:30.18 | 126975 | 169742
Track 1
Filename C:\Addis is killing my HDD\01 - Funky Stuff.wav
Pre-gap length 0:00:02.00
Peak level 100.0 % Track quality 100.0 % Test CRC 0906F360 Copy CRC 0906F360 Cannot be verified as accurate (confidence 3) [8D0D9E4D], AccurateRip returned [6874091B] Copy OK
Track 2
Filename C:\Addis is killing my HDD\02 - More Funky Stuff.wav
Pre-gap length 0:00:03.16
Peak level 100.0 % Track quality 100.0 % Test CRC 67720BAE Copy CRC 67720BAE Cannot be verified as accurate (confidence 3) [C641B7E7], AccurateRip returned [C6881489] Copy OK
Track 3
Filename C:\Addis is killing my HDD\03 - Jungle Boogie.wav
Pre-gap length 0:00:03.17
Peak level 92.2 % Track quality 100.0 % Test CRC 9B128A8F Copy CRC 9B128A8F Cannot be verified as accurate (confidence 3) [FCD8363F], AccurateRip returned [5B175155] Copy OK
Track 4
Filename C:\Addis is killing my HDD\04 - Heaven At Once.wav
Pre-gap length 0:00:03.17
Peak level 79.4 % Track quality 100.0 % Test CRC 59B23586 Copy CRC 59B23586 Cannot be verified as accurate (confidence 3) [E2CF7199], AccurateRip returned [AADEC7FD] Copy OK
Track 5
Filename C:\Addis is killing my HDD\05 - Hollywood Swinging.wav
Pre-gap length 0:00:03.40
Peak level 92.2 % Track quality 99.9 % Test CRC 5B1A9E3A Copy CRC 5B1A9E3A Cannot be verified as accurate (confidence 3) [82B9B356], AccurateRip returned [AF6780EA] Copy OK
Track 6
Filename C:\Addis is killing my HDD\06 - This Is You, This Is Me.wav
Pre-gap length 0:00:03.17
Peak level 83.1 % Track quality 100.0 % Test CRC 3839BD44 Copy CRC 3839BD44 Cannot be verified as accurate (confidence 3) [78C29960], AccurateRip returned [5AED25CA] Copy OK
Track 7
Filename C:\Addis is killing my HDD\07 - Life Is What You Make it.wav
Pre-gap length 0:00:03.20
Peak level 93.3 % Track quality 100.0 % Test CRC D594A55C Copy CRC D594A55C Cannot be verified as accurate (confidence 3) [5E5E6734], AccurateRip returned [81468210] Copy OK
Track 8
Filename C:\Addis is killing my HDD\08 - Wild And Peacful.wav
Pre-gap length 0:00:03.16
Peak level 87.0 % Track quality 100.0 % Test CRC 386CE105 Copy CRC 386CE105 Cannot be verified as accurate (confidence 3) [02FA2B62], AccurateRip returned [6D6DF8EA] Copy OK
No tracks could be verified as accurateYou may have a different pressing from the one(s) in the database
No errors occurred
End of status report

Содержание индексной карты (.CUE)

REM GENRE FunkREM DATE 1973REM DISCID 6B08D708REM COMMENT "ExactAudioCopy v0.99pb3"PERFORMER "Kool & the Gang"TITLE "Wild And Peaceful"FILE "01 - Funky Stuff.wav" WAVE  TRACK 01 AUDIO    TITLE "Funky Stuff"    PERFORMER "Kool & the Gang"    INDEX 01 00:00:00  TRACK 02 AUDIO    TITLE "More Funky Stuff"    PERFORMER "Kool & the Gang"    INDEX 00 03:00:43FILE "02 - More Funky Stuff.wav" WAVE    INDEX 01 00:00:00  TRACK 03 AUDIO    TITLE "Jungle Boogie"    PERFORMER "Kool & the Gang"    INDEX 00 02:50:50FILE "03 - Jungle Boogie.wav" WAVE    INDEX 01 00:00:00  TRACK 04 AUDIO    TITLE "Heaven at Once"    PERFORMER "Kool & the Gang"    INDEX 00 03:03:27FILE "04 - Heaven at Once.wav" WAVE    INDEX 01 00:00:00  TRACK 05 AUDIO    TITLE "Hollywood Swinging"    PERFORMER "Kool & the Gang"    INDEX 00 05:02:15FILE "05 - Hollywood Swinging.wav" WAVE    INDEX 01 00:00:00  TRACK 06 AUDIO    TITLE "This Is You, This Is Me"    PERFORMER "Kool & the Gang"    INDEX 00 04:36:57FILE "06 - This Is You, This Is Me.wav" WAVE    INDEX 01 00:00:00  TRACK 07 AUDIO    TITLE "Life Is What You Make It"    PERFORMER "Kool & the Gang"    INDEX 00 05:23:25FILE "07 - Life Is What You Make It.wav" WAVE    INDEX 01 00:00:00  TRACK 08 AUDIO    TITLE "Wild and Peaceful"    PERFORMER "Kool & the Gang"    INDEX 00 03:53:50FILE "08 - Wild and Peaceful.wav" WAVE    INDEX 01 00:00:00

Лог DR

foobar2000 1.5.3 / Dynamic Range Meter 1.1.1log date: 2020-05-11 09:26:01
--------------------------------------------------------------------------------Analyzed: Kool & the Gang / Wild and Peaceful--------------------------------------------------------------------------------
DR Peak RMS Duration Track--------------------------------------------------------------------------------DR12 0.00 dB -12.95 dB 3:04 01-Funky StuffDR12 0.00 dB -13.92 dB 2:54 02-More Funky StuffDR10 -0.70 dB -12.22 dB 3:07 03-Jungle BoogieDR10 -2.00 dB -14.55 dB 5:06 04-Heaven at OnceDR12 -0.70 dB -13.85 dB 4:40 05-Hollywood SwingingDR9 -1.60 dB -12.48 dB 5:27 06-This Is You, This Is MeDR14 -0.60 dB -15.97 dB 3:57 07-Life Is What You Make itDR11 -1.20 dB -15.87 dB 9:30 08-Wild and Peaceful--------------------------------------------------------------------------------
Number of tracks: 8Official DR value: DR11
Samplerate: 44100 HzChannels: 2Bits per sample: 16Bitrate: 806 kbpsCodec: FLAC================================================================================

Чтобы скачать этот контент, Вам необходимо:
1. Скачать и установить торрент-клиент [клик для Windows], (для мобильного найдите на Play Маркет).
2. Кликнуть по [Скачать]


Внимание.
Если проверка ВЫ НЕ РОБОТ - не работает, значит Вы используете устаревший браузер.
Установите актуальный браузер и повторно кликните по [Скачать]

Запрещён Яндекс браузер. Загрузка файлов им является ошибочной.
Безопасность: торрент-клиент разрешён АВ Касперского.

[asmlocator.ru].t736456.torrent 
Торрент: Зарегистрирован [ 2020-05-19 22:35 ] · 04175688ADAEA7295394CD330EC7DA80F84A825C

Скачать .torrent

Скачать

21 KB

Статус: проверено
Скачан: 0 раз
Размер: 247 MB
terms.php
[Профиль] [ЛС]
Показать сообщения:    
Ответить на тему

Текущее время: 24-Май 22:30

Часовой пояс: UTC ± 0



Вы не можете начинать темы
Вы не можете отвечать на сообщения
Вы не можете редактировать свои сообщения
Вы не можете удалять свои сообщения
Вы не можете голосовать в опросах
Вы не можете прикреплять файлы к сообщениям
Вы можете скачивать файлы
Верим фактам, а не вранью Путина! Факт, что Правительство ведёт Россию к истреблению.
Так как численность населения падает, даже не смотря на приток эмигрантов!
Русская нация вымирает и вырождается, смешиваясь с эмигрантами!
Факт, что военных и граждан предприятий заставляют голосовать за партию Единая Россия и Путина
ПОД СТРАХОМ УВОЛЬНЕНИЯ!
Нам не нужно Правительство, блокирующее личную жизнь, интернет, нарушающее сохранность данных.
Все эти действия финансируются за счёт народа!