(Contemporary Classical) Gavin Bryars / Harmonia Ensemble ‎- The North Shore. Intermezzo. Allegrasco (Damiano Puliti, Orio Odori, Alessandra Garosi) - 1999, FLAC (tracks+.cue) lossless

Ответить на тему
Статистика раздачи
Размер:  154 MB   |    Зарегистрирован:  18 дней   |    Скачан:  0 раз

Полного источника не было: Никогда

 
   
 
 
Автор Сообщение

star21 ®

Пол: Женский

Стаж: 4 года 6 месяцев

Сообщений: 551945

Откуда: Екатеринбург

Создавать темы 06-Май-2020 00:20

[Цитировать]

Gavin Bryars / Harmonia Ensemble ‎- The North Shore. Intermezzo. Allegrasco
Жанр: Contemporary Classical
Страна-производитель диска: Italy
Год издания диска: 1999
Издатель (лейбл): Materiali Sonori
Номер по каталогу: MASO CD 90108
Аудиокодек: FLAC
Тип рипа: tracks+.cue
Битрейт аудио: lossless
Продолжительность: 00:41:53
Источник: скачано с
сайт-источник/ник/другое: локальная сеть
Наличие сканов в содержимом раздачи: нет
Треклист:
1 The North Shore 10:45
2 Intermezzo 13:11
3 Allegrasco 17:48
Исполнители:
Cello – Damiano Puliti
Clarinet – Orio Odori
Composed By – Gavin Bryars
Ensemble – Harmonia Ensemble
Piano – Alessandra Garosi

Лог создания рипа

X Lossless Decoder version 20141129 (148.1)
XLD extraction logfile from 2015-05-24 13:06:48 -0400
Gavin Bryars / The North Shore
Used drive : Optiarc DVD RW AD-7760H (revision 1.00)Media type : Pressed CD
Ripper mode : XLD Secure RipperDisable audio cache : OK for the drive with a cache less than 1375KiBMake use of C2 pointers : NORead offset correction : 48Max retry count : 20Gap status : Analyzed, Appended (except HTOA)
TOC of the extracted CD Track | Start | Length | Start sector | End sector --------------------------------------------------------- 1 | 00:00:00 | 10:49:40 | 0 | 48714 2 | 10:49:40 | 13:16:23 | 48715 | 108437 3 | 24:05:63 | 17:48:74 | 108438 | 188611
AccurateRip Summary (DiscID: 000546a5-0011f669-1e09d203) Track 01 : OK (v2, confidence 1/1) Track 02 : OK (v2, confidence 1/1) Track 03 : OK (v2, confidence 1/1) ->All tracks accurately ripped.
All Tracks Album gain : -0.71 dB Peak : 0.966034 Statistics Read error : 0 Jitter error (maybe fixed) : 0 Retry sector count : 0 Damaged sector count : 0
Track 01 Filename : /Users/allenruch/Desktop/Uploads/Gavin Bryars - The North Shore (2006) [FLAC]/01 The North Shore.flac Pre-gap length : 00:02:00
Track gain : -0.71 dB Peak : 0.824646 CRC32 hash (test run) : 2AACF46D CRC32 hash : 2AACF46D CRC32 hash (skip zero) : 559299C3 AccurateRip v1 signature : BCFA57C2 AccurateRip v2 signature : E1A1A356 ->Accurately ripped (v2, confidence 1/1) Statistics Read error : 0 Jitter error (maybe fixed) : 0 Retry sector count : 0 Damaged sector count : 0
Track 02 Filename : /Users/allenruch/Desktop/Uploads/Gavin Bryars - The North Shore (2006) [FLAC]/02 Intermezzo.flac Pre-gap length : 00:03:45
Track gain : 0.58 dB Peak : 0.899170 CRC32 hash (test run) : E6155E5E CRC32 hash : E6155E5E CRC32 hash (skip zero) : 997CB4D9 AccurateRip v1 signature : E1801F5B AccurateRip v2 signature : 8B6D03CE ->Accurately ripped (v2, confidence 1/1) Statistics Read error : 0 Jitter error (maybe fixed) : 0 Retry sector count : 0 Damaged sector count : 0
Track 03 Filename : /Users/allenruch/Desktop/Uploads/Gavin Bryars - The North Shore (2006) [FLAC]/03 Allegrasco.flac Pre-gap length : 00:03:45
Track gain : -1.26 dB Peak : 0.966034 CRC32 hash (test run) : 7F84FFCC CRC32 hash : 7F84FFCC CRC32 hash (skip zero) : 47AD6711 AccurateRip v1 signature : C154DC86 AccurateRip v2 signature : AAB914F4 ->Accurately ripped (v2, confidence 1/1) Statistics Read error : 0 Jitter error (maybe fixed) : 0 Retry sector count : 0 Damaged sector count : 0
No errors occurred
End of status report
-----BEGIN XLD SIGNATURE-----F6ZZipQH58QhB6Z1H0heVcGRyzjBL_1q_ksiakTd.YX1yGXPUE.pGRXGpAyEBobWzyHfwHD6fyS6MZiosmB14mrKWBmynRKyQLt9EoC-----END XLD SIGNATURE-----

Содержание индексной карты (.CUE)

TITLE "The North Shore"PERFORMER "Gavin Bryars"REM GENRE "Classical"REM DATE "2006"REM DISCNUMBER 1REM TOTALDISCS 1REM DISCID 1E09D203REM REPLAYGAIN_ALBUM_GAIN -0.71 dBREM REPLAYGAIN_ALBUM_PEAK 0.966034FILE "01 The North Shore.flac" WAVE  TRACK 01 AUDIO    TITLE "The North Shore"    PERFORMER "Harmonia Ensemble"    SONGWRITER "Gavin Bryars"    REM REPLAYGAIN_TRACK_GAIN -0.71 dB    REM REPLAYGAIN_TRACK_PEAK 0.824646    INDEX 01 00:00:00  TRACK 02 AUDIO    TITLE "Intermezzo"    PERFORMER "Harmonia Ensemble"    SONGWRITER "Gavin Bryars"    REM REPLAYGAIN_TRACK_GAIN 0.58 dB    REM REPLAYGAIN_TRACK_PEAK 0.899170    INDEX 00 10:45:70FILE "02 Intermezzo.flac" WAVE    INDEX 01 00:00:00  TRACK 03 AUDIO    TITLE "Allegrasco"    PERFORMER "Harmonia Ensemble"    SONGWRITER "Gavin Bryars"    REM REPLAYGAIN_TRACK_GAIN -1.26 dB    REM REPLAYGAIN_TRACK_PEAK 0.966034    INDEX 00 13:12:53FILE "03 Allegrasco.flac" WAVE    INDEX 01 00:00:00

Чтобы скачать этот контент, Вам необходимо:
1. Скачать и установить торрент-клиент [клик для Windows], (для мобильного найдите на Play Маркет).
2. Кликнуть по [Скачать]


Внимание.
Если проверка ВЫ НЕ РОБОТ - не работает, значит Вы используете устаревший браузер.
Установите актуальный браузер и повторно кликните по [Скачать]

Запрещён Яндекс браузер. Загрузка файлов им является ошибочной.
Безопасность: торрент-клиент разрешён АВ Касперского.

[asmlocator.ru].t731647.torrent 
Торрент: Зарегистрирован [ 2020-05-06 00:20 ] · E76FC86F2F7759ED2EEB40A6A9667A8D2A4D1DD9

Скачать .torrent

Скачать

13 KB

Статус: проверено
Скачан: 0 раз
Размер: 154 MB
terms.php
[Профиль] [ЛС]
Показать сообщения:    
Ответить на тему

Текущее время: 24-Май 23:10

Часовой пояс: UTC ± 0



Вы не можете начинать темы
Вы не можете отвечать на сообщения
Вы не можете редактировать свои сообщения
Вы не можете удалять свои сообщения
Вы не можете голосовать в опросах
Вы не можете прикреплять файлы к сообщениям
Вы можете скачивать файлы
Верим фактам, а не вранью Путина! Факт, что Правительство ведёт Россию к истреблению.
Так как численность населения падает, даже не смотря на приток эмигрантов!
Русская нация вымирает и вырождается, смешиваясь с эмигрантами!
Факт, что военных и граждан предприятий заставляют голосовать за партию Единая Россия и Путина
ПОД СТРАХОМ УВОЛЬНЕНИЯ!
Нам не нужно Правительство, блокирующее личную жизнь, интернет, нарушающее сохранность данных.
Все эти действия финансируются за счёт народа!