Ван-Пис Фильм четырнадцатый: Паническое бегство / One Piece Stampede [Movie] [Без хардсаба] [RUS(int), JAP, Sub] [2019, приключения, фэнтези, BDRip] [HWP]

Ответить на тему
Статистика раздачи
Размер:  1.36 GB   |    Зарегистрирован:  2 месяца 11 дней   |    Скачан:  0 раз

Полного источника не было: Никогда

 
   
 
 
Автор Сообщение

star21 ®

Пол: Женский

Стаж: 4 года 6 месяцев

Сообщений: 551945

Откуда: Екатеринбург

Создавать темы 19-Мар-2020 22:50

[Цитировать]

Ван-Пис: Фильм четырнадцатый / One Piece Stampede
Страна: Япония
Год выпуска: 2019
Жанр: приключения, фэнтези
Тип: Movie
Продолжительность: полнометражный фильм, 105 мин.
Режиссер: Оцука Такаси
Описание:
Новые приключения команды Луфи.
Раз в несколько лет проходит «Фестиваль пиратов» — величайшее событие в мире, организованное пиратами и для пиратов, где собираются и устраивают дебош самые известные, самые ужасные, самые популярные пиратские команды.
Команда «Соломенной Шляпы», конечно же, получает приглашение, и капитан уже отдал приказ вести корабль на место сходки. Все в радостном предвкушении необычного события. Но кто знает, кого они встретят и что их там поджидает?
Какой мотив был у Буэны Фесты, когда он организовывал этот фестиваль, на котором, как оказалось, для Луффи припасена особая роль?
Доп. информация:
Релиз GSGroup

Качество: HDRip
Тип релиза: Без хардсаба
Формат видео: AVI
Релиз/Автор рипа: gsg DS of BDRip ???????: ???? / One.Piece.Stampede.2019.1080p.BluRay.x264.DTS-WiKi ??????
Совместимость с бытовыми плеерами: Да
Видео: XviD, 720x400, 23.976 fps, 1522 Kbps, 8 bits
Аудио: AC-3, 48 KHz, 192 Kbps, 2 channels Язык Русский (в составе контейнера) ; Озвучка: женская одноголосая: Persona99
Аудио 2: AC-3, 48 KHz, 192 Kbps, 2 channels Язык Японский ; Озвучка 2: оригинал
Субтитры: внешние srt, ass Язык субтитров русский ; Перевод: Ziggy Team Редактура/оформление: Angara

Подробные тех. данные

GeneralComplete name                            :E\One Piece_E\One Piece Stampede\One_Piece_Movie 14_Stampede_[Persona99.GSG].rus.jpn.aviFormat                                   : AVIFormat/Info                              : Audio Video InterleaveFile size                                : 1.36 GiBDuration                                 : 1h 41mnOverall bit rate                         : 1 920 KbpsWriting application                      : VirtualDubMod 1.5.10.2 (build 2540/release)Writing library                          : VirtualDubMod build 2540/release
VideoID : 0Format : MPEG-4 VisualFormat profile : Advanced Simple@L5Format settings, BVOP : 2Format settings, QPel : NoFormat settings, GMC : No warppointsFormat settings, Matrix : Default (H.263)Codec ID : XVIDCodec ID/Hint : XviDDuration : 1h 41mnBit rate : 1 522 KbpsWidth : 720 pixelsHeight : 400 pixelsDisplay aspect ratio : 16:9Frame rate : 23.976 fpsColor space : YUVChroma subsampling : 4:2:0Bit depth : 8 bitsScan type : ProgressiveCompression mode : LossyBits/(Pixel*Frame) : 0.220Stream size : 1.07 GiB (79%)Writing library : XviD 67
Audio #1ID : 1Format : AC-3Format/Info : Audio Coding 3Mode extension : CM (complete main)Format settings, Endianness : BigCodec ID : 2000Duration : 1h 41mnBit rate mode : ConstantBit rate : 192 KbpsChannel(s) : 2 channelsChannel positions : Front: L RSampling rate : 48.0 KHzBit depth : 16 bitsCompression mode : LossyStream size : 139 MiB (10%)Alignment : Split accross interleavesInterleave, duration : 42 ms (1.00 video frame)Interleave, preload duration : 500 ms
Audio #2ID : 2Format : AC-3Format/Info : Audio Coding 3Mode extension : CM (complete main)Format settings, Endianness : BigCodec ID : 2000Duration : 1h 41mnBit rate mode : ConstantBit rate : 192 KbpsChannel(s) : 2 channelsChannel positions : Front: L RSampling rate : 48.0 KHzBit depth : 16 bitsCompression mode : LossyStream size : 139 MiB (10%)Alignment : Split accross interleavesInterleave, duration : 42 ms (1.00 video frame)Interleave, preload duration : 500 ms

Скриншоты


Чтобы скачать этот контент, Вам необходимо:
1. Скачать и установить торрент-клиент [клик для Windows], (для мобильного найдите на Play Маркет).
2. Кликнуть по [Скачать]


Внимание.
Если проверка ВЫ НЕ РОБОТ - не работает, значит Вы используете устаревший браузер.
Установите актуальный браузер и повторно кликните по [Скачать]

Запрещён Яндекс браузер. Загрузка файлов им является ошибочной.
Безопасность: торрент-клиент разрешён АВ Касперского.

[asmlocator.ru].t717761.torrent 
Торрент: Зарегистрирован [ 2020-03-19 22:50 ] · 8F380CC545B8C3AF2D82F7E9DCA7F0960997F98C

Скачать .torrent

Скачать

14 KB

Статус: проверено
Скачан: 0 раз
Размер: 1.36 GB
terms.php
[Профиль] [ЛС]
Показать сообщения:    
Ответить на тему

Текущее время: 31-Май 03:43

Часовой пояс: UTC ± 0



Вы не можете начинать темы
Вы не можете отвечать на сообщения
Вы не можете редактировать свои сообщения
Вы не можете удалять свои сообщения
Вы не можете голосовать в опросах
Вы не можете прикреплять файлы к сообщениям
Вы можете скачивать файлы
Верим фактам, а не вранью Путина! Факт, что Правительство ведёт Россию к истреблению.
Так как численность населения падает, даже не смотря на приток эмигрантов!
Русская нация вымирает и вырождается, смешиваясь с эмигрантами!
Факт, что военных и граждан предприятий заставляют голосовать за партию Единая Россия и Путина
ПОД СТРАХОМ УВОЛЬНЕНИЯ!
Нам не нужно Правительство, блокирующее личную жизнь, интернет, нарушающее сохранность данных.
Все эти действия финансируются за счёт народа!