Проклятие / The Grudge (Николас Песке / Nicolas Pesce) [2020,Канада, США, Ужасы, HDRip] Sub Rus + Original Eng

Ответить на тему
Статистика раздачи
Размер:  1.46 GB   |    Зарегистрирован:  2 месяца 9 дней   |    Скачан:  0 раз

Полного источника не было: Никогда

 
   
 
 
Автор Сообщение

star21 ®

Пол: Женский

Стаж: 4 года 6 месяцев

Сообщений: 551945

Откуда: Екатеринбург

Создавать темы 18-Мар-2020 22:10

[Цитировать]

Проклятие / The Grudge Страна: Канада, США
Жанр: Ужасы
Год выпуска: 2020
Продолжительность: 01:33:44

Перевод: Субтитры
Субтитры: Полные русские - отдельно
Оригинальная аудиодорожка: Английский
Режиссер: Николас Песке / Nicolas Pesce
В ролях: Андреа Райзборо, Демиан Бишир, Джон Чо, Бетти Гилпин, Лин Шэй, Джеки Уивер, Тара Вествуд, Джанко Бэйли, Дэвид Браун, Зои Фиш
Описание: После того как молодая женщина убила собственную семью в своем доме, мать-одиночка и детектив пытается расследовать дело. Вскоре выясняется, что дом проклят мстительным призраком, обрекающим всех входящих в него на смерть. Она спешит спасти себя и своего ребенка от демонической силы дома по соседству.
Сэмпл: http://multi-up.com/1257664
Качество видео: HDRip
Исходник: The.Grudge.2020.1080p.BluRay.x264-YOL0W
Формат видео: AVI
Видео: 720x304 (2.37:1), 23.976 fps, XviD build 65 ~1774 kbps avg, 0.34 bit/pixel
Аудио: 48 kHz, AC3 Dolby Digital, 3/2 (L,C,R,l,r) + LFE ch, ~448 kbps
Rip by Ториял для

Пример субтитров


1
00:00:57,590 --> 00:01:02,600
ТОКИО
2004 ГОД
2
00:01:11,480 --> 00:01:12,860
- Йоко.
- Что такое?
3
00:01:12,940 --> 00:01:14,690
Я ухожу из дома Уильямсов.
4
00:01:14,780 --> 00:01:16,950
Дженнифер нет дома,
а Эмма спит.
5
00:01:17,030 --> 00:01:20,490
Я оставлю ключи Алексу в центре
и поеду в аэропорт.
6
00:01:20,580 --> 00:01:21,950
- Что-то случилось?
- Нет, мне...
7
00:01:22,030 --> 00:01:24,620
- Что не так?
- Мне надо поехать домой.
8
00:01:24,700 --> 00:01:29,330
Я знаю, что обещала работать дольше,
но мне надо вернуться к семье.
9
00:01:29,420 --> 00:01:31,590
Не могу объяснить. Это что-то...
10
00:01:33,460 --> 00:01:37,470
- Мне надо назад в Штаты.
- Я думала, ты должна была...
11
00:01:37,550 --> 00:01:38,430
Йоко?
12
00:01:39,010 --> 00:01:39,890
Йоко?
13
00:01:41,300 --> 00:01:42,220
Йоко.
14
00:02:26,640 --> 00:02:30,650
КРОСС РИВЕР
ПЕНСИЛЬВАНИЯ
15
00:02:33,110 --> 00:02:34,190
Где...?
16
00:02:34,270 --> 00:02:35,780
- О, привет.
- Мамочка!
17
00:02:35,860 --> 00:02:37,820
- Ребята, я дома.
- Добро пожаловать.
18
00:02:37,900 --> 00:02:39,740
- Ты приехала.
- О, любовь моя.
19
00:02:40,570 --> 00:02:42,410
Добро пожаловать домой.
20
00:02:42,490 --> 00:02:43,950
Так хорошо дома.
21
00:02:44,870 --> 00:02:46,790
- Я по тебе скучал.
- И я по тебе скучала.

MediaInfo


Format : AVI
Format/Info : Audio Video Interleave
File size : 1.46 GiB
Duration : 1 h 33 min
Overall bit rate : 2 232 kb/s
Writing application : VirtualDubMod 1.5.10.3 | www.virtualdub-fr.org || (build 2550/release)
Writing library : VirtualDubMod build 2550/release
Video
ID : 0
Format : MPEG-4 Visual
Format profile : Advanced Simple@L5
Format settings : BVOP1 / Custom Matrix
Format settings, BVOP : 1
Format settings, QPel : No
Format settings, GMC : No warppoints
Format settings, Matrix : Custom
Codec ID : XVID
Codec ID/Hint : XviD
Duration : 1 h 33 min
Bit rate : 1 775 kb/s
Width : 720 pixels
Height : 304 pixels
Display aspect ratio : 2.35:1
Frame rate : 23.976 (24000/1001) FPS
Original frame rate : 23.979 FPS
Color space : YUV
Chroma subsampling : 4:2:0
Bit depth : 8 bits
Scan type : Progressive
Compression mode : Lossy
Bits/(Pixel*Frame) : 0.338
Stream size : 1.16 GiB (80%)
Writing library : XviD 65
Audio
ID : 1
Format : AC-3
Format/Info : Audio Coding 3
Commercial name : Dolby Digital
Codec ID : 2000
Duration : 1 h 33 min
Bit rate mode : Constant
Bit rate : 448 kb/s
Channel(s) : 6 channels
Channel positions : Front: L C R, Side: L R, LFE
Sampling rate : 48.0 kHz
Frame rate : 31.250 FPS (1536 SPF)
Bit depth : 16 bits
Compression mode : Lossy
Stream size : 300 MiB (20%)
Alignment : Split accross interleaves
Interleave, duration : 42 ms (1.00 video frame)
Interleave, preload duratio : 500 ms
Service kind : Complete Main

Скриншоты

Чтобы скачать этот контент, Вам необходимо:
1. Скачать и установить торрент-клиент [клик для Windows], (для мобильного найдите на Play Маркет).
2. Кликнуть по [Скачать]


Внимание.
Если проверка ВЫ НЕ РОБОТ - не работает, значит Вы используете устаревший браузер.
Установите актуальный браузер и повторно кликните по [Скачать]

Запрещён Яндекс браузер. Загрузка файлов им является ошибочной.
Безопасность: торрент-клиент разрешён АВ Касперского.

[asmlocator.ru].t717750.torrent 
Торрент: Зарегистрирован [ 2020-03-18 22:10 ] · DBBAA0C4EFD42A10B1D6A0DA8D84A12C7501ED1D

Скачать .torrent

Скачать

15 KB

Статус: проверено
Скачан: 0 раз
Размер: 1.46 GB
terms.php
[Профиль] [ЛС]
Показать сообщения:    
Ответить на тему

Текущее время: 28-Май 08:08

Часовой пояс: UTC ± 0



Вы не можете начинать темы
Вы не можете отвечать на сообщения
Вы не можете редактировать свои сообщения
Вы не можете удалять свои сообщения
Вы не можете голосовать в опросах
Вы не можете прикреплять файлы к сообщениям
Вы можете скачивать файлы
Верим фактам, а не вранью Путина! Факт, что Правительство ведёт Россию к истреблению.
Так как численность населения падает, даже не смотря на приток эмигрантов!
Русская нация вымирает и вырождается, смешиваясь с эмигрантами!
Факт, что военных и граждан предприятий заставляют голосовать за партию Единая Россия и Путина
ПОД СТРАХОМ УВОЛЬНЕНИЯ!
Нам не нужно Правительство, блокирующее личную жизнь, интернет, нарушающее сохранность данных.
Все эти действия финансируются за счёт народа!