Лиза / Сука / Liza / La Cagna (Марко Феррери / Marco Ferreri) [1972, Франция, Италия, Драма, HDTVRip-AVC] [Французская версия] DVO (ОРТ Видео) + Sub Rus (forced) + Original Fra

Ответить на тему
Статистика раздачи
Размер:  1.47 GB   |    Зарегистрирован:  2 месяца 22 дня   |    Скачан:  0 раз

Полного источника не было: 54 минуты

 
   
 
 
Автор Сообщение

star21 ®

Пол: Женский

Стаж: 4 года 6 месяцев

Сообщений: 551945

Откуда: Екатеринбург

Создавать темы 10-Мар-2020 07:20

[Цитировать]

Лиза / Сука / Liza / La Cagna [Французская версия]
Жанр: Драма
Страна: Франция, Италия
Студия: Pegaso Cinematografica, Lira Films
Год выпуска: 1972
Продолжительность: 01:32:28
Перевод: Профессиональный (двухголосый закадровый) - ОРТ Видео
Субтитры: русские (форсированные) – на 6 минут отсутствующих в озвучке
Оригинальная аудиодорожка: французский
Режиссер: Марко Феррери / Marco Ferreri
В ролях:
Марчелло Мастроянни / Marcello Mastroianni ... Giorgio
Катрин Денёв / Catherine Deneuve ... Liza
Мишель Пикколи / Michel Piccoli ... Giorgio's friend
Коринн Маршан / Corinne Marchand ... Giorgio's wife
Клодин Берг / Claudine Berg ... Liza's friend
Доминик Марка / Dominique Marcas ... Maid
Луиджи Антонио Гуэрра / Luigi Antonio Guerra ...
Валери Стро / Valérie Stroh ... Giorgio's daughter
Паскаль Лаперузас / Pascal Laperrousaz ... Giorgio's son
Энрико Блази / Enrico Blasi ...
Клаудия Бьянчи / Claudia Bianchi ...
Фабрицио Бенедетти / Fabrizio Benedetti ...
Описание: По роману Эннио Флайяно ( Ennio Flaiano) «Мелампо» ("Melampus").
До тех пор пока есть возможность удержать любимого мужчину в своей власти, женщина пойдет на всё! И устранит со своего пути соперницу, будь она человеком или даже собакой! А если мужчине приятно иметь рядом с собой животное, к примеру, суку, ну что ж…
Художник Джорджо, иллюстратор комиксов, в одиночестве живёт на отдаленном и пустынном средиземноморском острове, где ищет драгоценного душевного покоя вдали от города, безнадежно пытаясь найти выход из невыносимой реальности. Там, в этом идиллическом месте, Джорджо ведет простую жизнь вместе со своей собакой Мелампо, ловя рыбу, рисуя и спасая все, что море выбрасывает на берег. Но вскоре это хрупкое равновесие нарушается, когда Джорджо, однажды, прогуливаясь по пляжу, сталкивается с прекрасной блондинкой Лизой, которая только что оставила своих друзей после ссоры на яхте. Джорджо предлагает ей еду и укрытие…
Лиза влюбляется в него и мечтает стать женой Джорджо, но он женат. Она мечтает быть ему близким другом, но у него есть любимая собака… Лиза готова на любые жертвы ради своей любви. Она убивает Мелампо, собаку Джорджо, и занимает её место. Теперь она женщина, которая всегда и везде следует за своим хозяином. Женщина с ошейником на шее…
Дополнительная информация:
Релиз:
Исходник найден в сети.
Автор рипа: pmv
Большое спасибо за:
- аудиодорожка с русской озвучкой (https://rutracker.org/forum/viewtopic.php?t=926846) - sergosip
- синхронизация звука - pmv
* В данном релизе, в отличие от альтернативных раздач на Рутрекере итальянской версии, представлена французская версия фильма «Лиза». Она отличается от итальянской разным монтажом эпизодов, и к тому же она на 6 минут продолжительнее (4 эпизода). На эти 6 минут имеется перевод русскими форсированными субтитрами. В итальянской же версии есть 2 незначительных эпизода (20 и 35 секунд), отсутствующие во французской версии.
IMDb = 6,5/10 (611) - https://www.imdb.com/title/tt0068868/
Кинопоиск = 6.853 (618) - https://www.kinopoisk.ru/film/21326/
ВНИМАНИЕ!!! РИП ФОРМАТА mkv (кодек H.264) ВОСПРОИЗВОДИТСЯ НЕ НА ВСЕХ БЫТОВЫХ ВИДЕОПЛЕЕРАХ!!!
ПРОСЬБА к СКАЧАВШИМ. НЕ УХОДИТЕ С РАЗДАЧИ, ПОМОГИТЕ ДРУГИМ СКАЧАТЬ!!!
Качество видео: HDTVRip-AVC
Формат видео: MKV
Видео: AVC (H264), 1074x648 (1.66:1), 25 fps, 1890 kbps, 0.109 Bits/Pixel
Аудио #1: AC3, 48 kHz, stereo (2 ch), 192 kbps - русский
Аудио #2: AC3, 48 kHz, stereo (2 ch), 192 kbps - француский

MediaInfo

GeneralUnique ID                      : 202274244474043577044767902472969697775 (0x982C9A39943C3D419CB3C85F3250B9EF)Complete name                  : D:\torrents\Liza (1972, rus_DVO+fre).mkvFormat                         : MatroskaFormat version                 : Version 4 / Version 2File size                      : 1.47 GiBDuration                       : 1 h 32 minOverall bit rate               : 2 276 kb/sMovie name                     : hdmovpremier.toile-libre.orgEncoded date                   : UTC 2020-03-08 19:41:04Writing application            : mkvmerge v6.7.0 ('Back to the Ground') 32bit built on Jan  8 2014 15:03:17Writing library                : libebml v1.3.0 + libmatroska v1.4.1
VideoID : 1Format : AVCFormat/Info : Advanced Video CodecFormat profile : High@L4.1Format settings, CABAC : YesFormat settings, RefFrames : 8 framesCodec ID : V_MPEG4/ISO/AVCDuration : 1 h 32 minBit rate : 1 890 kb/sWidth : 1 074 pixelsHeight : 648 pixelsDisplay aspect ratio : 5:3Frame rate mode : ConstantFrame rate : 25.000 FPSColor space : YUVChroma subsampling : 4:2:0Bit depth : 8 bitsScan type : ProgressiveBits/(Pixel*Frame) : 0.109Stream size : 1.19 GiB (81%)Title : Liza 1972 frenchWriting library : x264 core 157 r2958 57baac4Encoding settings : cabac=1 / ref=8 / deblock=1:-1:-1 / analyse=0x3:0x133 / me=umh / subme=9 / psy=1 / psy_rd=1.00:0.00 / mixed_ref=1 / me_range=24 / chroma_me=1 / trellis=2 / 8x8dct=1 / cqm=0 / deadzone=21,11 / fast_pskip=1 / chroma_qp_offset=-2 / threads=20 / lookahead_threads=3 / sliced_threads=0 / nr=0 / decimate=1 / interlaced=0 / bluray_compat=0 / constrained_intra=0 / bframes=7 / b_pyramid=2 / b_adapt=2 / b_bias=0 / direct=3 / weightb=1 / open_gop=0 / weightp=2 / keyint=10 / keyint_min=6 / scenecut=40 / intra_refresh=0 / rc_lookahead=10 / rc=2pass / mbtree=1 / bitrate=1890 / ratetol=1.0 / qcomp=0.60 / qpmin=0 / qpmax=69 / qpstep=4 / cplxblur=20.0 / qblur=0.5 / ip_ratio=1.40 / aq=1:1.00Language : FrenchDefault : YesForced : NoColor range : LimitedColor primaries : BT.709Transfer characteristics : BT.709Matrix coefficients : BT.709
Audio #1ID : 2Format : AC-3Format/Info : Audio Coding 3Format settings, Endianness : BigCodec ID : A_AC3Duration : 1 h 32 minBit rate mode : ConstantBit rate : 192 kb/sChannel(s) : 2 channelsChannel positions : Front: L RSampling rate : 48.0 kHzFrame rate : 31.250 FPS (1536 SPF)Bit depth : 16 bitsCompression mode : LossyStream size : 127 MiB (8%)Language : RussianService kind : Complete MainDefault : YesForced : No
Audio #2ID : 3Format : AC-3Format/Info : Audio Coding 3Format settings, Endianness : BigCodec ID : A_AC3Duration : 1 h 32 minBit rate mode : ConstantBit rate : 192 kb/sChannel(s) : 2 channelsChannel positions : Front: L RSampling rate : 48.0 kHzFrame rate : 31.250 FPS (1536 SPF)Bit depth : 16 bitsCompression mode : LossyStream size : 127 MiB (8%)Language : FrenchService kind : Complete MainDefault : NoForced : No
TextID : 4Format : UTF-8Codec ID : S_TEXT/UTF8Codec ID/Info : UTF-8 Plain TextLanguage : RussianDefault : YesForced : No

Скриншот c названием фильма

МОИ РАЗДАЧИ НА РУТРЕКЕРЕ: https://rutracker.org/forum/tracker.php?rid=27390064

Чтобы скачать этот контент, Вам необходимо:
1. Скачать и установить торрент-клиент [клик для Windows], (для мобильного найдите на Play Маркет).
2. Кликнуть по [Скачать]


Внимание.
Если проверка ВЫ НЕ РОБОТ - не работает, значит Вы используете устаревший браузер.
Установите актуальный браузер и повторно кликните по [Скачать]

Запрещён Яндекс браузер. Загрузка файлов им является ошибочной.
Безопасность: торрент-клиент разрешён АВ Касперского.

[asmlocator.ru].t714927.torrent 
Торрент: Зарегистрирован [ 2020-03-10 07:20 ] · 96C19A00920EE1D548CC6280D3A60A097A12EF0D

Скачать .torrent

Скачать

15 KB

Статус: проверено
Скачан: 0 раз
Размер: 1.47 GB
terms.php
[Профиль] [ЛС]
Показать сообщения:    
Ответить на тему

Текущее время: 01-Июн 13:44

Часовой пояс: UTC ± 0



Вы не можете начинать темы
Вы не можете отвечать на сообщения
Вы не можете редактировать свои сообщения
Вы не можете удалять свои сообщения
Вы не можете голосовать в опросах
Вы не можете прикреплять файлы к сообщениям
Вы можете скачивать файлы
Верим фактам, а не вранью Путина! Факт, что Правительство ведёт Россию к истреблению.
Так как численность населения падает, даже не смотря на приток эмигрантов!
Русская нация вымирает и вырождается, смешиваясь с эмигрантами!
Факт, что военных и граждан предприятий заставляют голосовать за партию Единая Россия и Путина
ПОД СТРАХОМ УВОЛЬНЕНИЯ!
Нам не нужно Правительство, блокирующее личную жизнь, интернет, нарушающее сохранность данных.
Все эти действия финансируются за счёт народа!