Сколько ты стоишь? / Combien tu m\'aimes? (Бертран Блие / Bertrand Blier) [2005, Франция, Италия, комедия, WEBRip 1080p] Dub + MVO + Sub Rus + Original Fra

Ответить на тему
Статистика раздачи
Размер:  3.35 GB   |    Зарегистрирован:  2 месяца 25 дней   |    Скачан:  1 раз

Полного источника не было: 23 минуты

 
   
 
 
Автор Сообщение

star21 ®

Пол: Женский

Стаж: 4 года 6 месяцев

Сообщений: 551945

Откуда: Екатеринбург

Создавать темы 08-Мар-2020 04:45

[Цитировать]

Сколько ты стоишь? / Combien tu m'aimes?- Страна: Франция, Италия
Студия: Fidélité Productions, France 2 Cinéma
Жанр: комедия
Год выпуска: 2005
Продолжительность: 01:29:44
Перевод 1: Профессиональный (дублированный) (Мосфильм)
Перевод 2: Профессиональный (многоголосый закадровый)
Субтитры: русские
Оригинальная аудиодорожка: французский-Режиссер: Бертран Блие / Bertrand Blier-В ролях: Моника Беллуччи, Бернар Кампан, Жерар Депардье, Жан-Пьер Дарруссен, Эдуар Баэр, Фарида Рахуадж, Сара Форестье, Мишель Вюийермоз, Франсуа Роллен, Жан Барни
Описание: Эта история началась, когда ему крупно повезло в лотерею. Это был большой выигрыш — 4 миллиона евро. Теперь он сможет исполнить свою мечту и отправляется в клуб, где каждый вечер роскошная итальянка продает свое тело. Он покупает ее любовь, но что еще он получит, войдя в ее мир, где бандиты прячутся за каждым углом и оружие решает все проблемы. Удалось ли ему удержать эту итальянскую красотку? Да, удалось! Но какой ценой…-Сэмпл | Кинопоиск-Тип релиза: WEBRip 1080p
Контейнер: MKV
Видео: MPEG-4 AVC (High@L4.0); 1920x816, Display aspect ratio 2.353:1, 25.000 fps, 3998 Kbps
Аудио 1: Русский: AC-3; 16 bits 48 Khz; 5.1 ch 448 Kbps; CBR | Dub
Аудио 2: Русский: AC-3; 16 bits 48 Khz; 5.1 ch 448 Kbps; CBR | MVO
Аудио 3: Французский: AC-3; 16 bits 48 Khz; 5.1 ch 448 Kbps; CBR | Original fre
Формат субтитров: softsub (SRT)
george$t писал(а):Благодарю Spidersoft888 / valderka (Kinozal) за дубляж и русские титры, и Diver233 за оригинал и закадр.

Дополнительно


* Видеоряд с Кинопоиска. Есть еще вебка с бóльшим (5120) битрейтом на ivi, но тот трансфер подпорчен гребенкой, вшитой в прогрессивные кадры, и его визуальное разрешение заметно ниже.
vs. DVD
https://rutracker.org/forum/viewtopic.php?t=117454


MediaInfo

GeneralUnique ID                   : 185760929611245708646036937564633321384 (0x8BC040F167BA151490E0A33418AE4FA8)Complete name               : Сколько ты стоишь.1080p.mkvFormat                      : MatroskaFormat version              : Version 2File size                   : 3.35 GiBDuration                    : 1 h 29 minOverall bit rate            : 5 343 kb/sEncoded date                : UTC 2020-03-04 11:06:31Writing application         : mkvmerge v7.8.0 ('River Man') 32bit built on Mar 27 2015 16:18:02Writing library             : libebml v1.3.1 + libmatroska v1.4.2
VideoID : 1Format : AVCFormat/Info : Advanced Video CodecFormat profile : High@L4Format settings : CABAC / 5 Ref FramesFormat settings, CABAC : YesFormat settings, ReFrames : 5 framesCodec ID : V_MPEG4/ISO/AVCDuration : 1 h 29 minBit rate : 3 892 kb/sNominal bit rate : 5 000 kb/sWidth : 1 920 pixelsHeight : 816 pixelsDisplay aspect ratio : 2.35:1Frame rate mode : ConstantFrame rate : 25.000 FPSColor space : YUVChroma subsampling : 4:2:0Bit depth : 8 bitsScan type : ProgressiveBits/(Pixel*Frame) : 0.099Stream size : 2.44 GiB (73%)Title : Сколько ты стоишь? / Combien tu m'aimes? 2005Writing library : x264 core 148 r2721 72d53abEncoding settings : cabac=1 / ref=5 / deblock=1:0:0 / analyse=0x3:0x133 / me=umh / subme=10 / psy=1 / psy_rd=1.00:0.00 / mixed_ref=1 / me_range=24 / chroma_me=1 / trellis=2 / 8x8dct=1 / cqm=0 / deadzone=21,11 / fast_pskip=1 / chroma_qp_offset=-2 / threads=25 / lookahead_threads=4 / sliced_threads=0 / nr=0 / decimate=1 / interlaced=0 / bluray_compat=0 / constrained_intra=0 / bframes=8 / b_pyramid=2 / b_adapt=2 / b_bias=0 / direct=3 / weightb=1 / open_gop=0 / weightp=2 / keyint=100 / keyint_min=50 / scenecut=40 / intra_refresh=0 / rc_lookahead=60 / rc=2pass / mbtree=1 / bitrate=5000 / ratetol=1.0 / qcomp=0.60 / qpmin=0 / qpmax=69 / qpstep=4 / cplxblur=20.0 / qblur=0.5 / vbv_maxrate=5500 / vbv_bufsize=920 / nal_hrd=none / filler=0 / ip_ratio=1.40 / aq=1:1.00Language : FrenchDefault : YesForced : No
Audio #1ID : 2Format : AC-3Format/Info : Audio Coding 3Codec ID : A_AC3Duration : 1 h 29 minBit rate mode : ConstantBit rate : 448 kb/sChannel(s) : 6 channelsChannel positions : Front: L C R, Side: L R, LFESampling rate : 48.0 kHzFrame rate : 31.250 FPS (1536 SPF)Bit depth : 16 bitsCompression mode : LossyStream size : 288 MiB (8%)Title : Дубляж (Мосфильм)Language : RussianService kind : Complete MainDefault : YesForced : No
Audio #2ID : 3Format : AC-3Format/Info : Audio Coding 3Codec ID : A_AC3Duration : 1 h 29 minBit rate mode : ConstantBit rate : 448 kb/sChannel(s) : 6 channelsChannel positions : Front: L C R, Side: L R, LFESampling rate : 48.0 kHzFrame rate : 31.250 FPS (1536 SPF)Bit depth : 16 bitsCompression mode : LossyStream size : 288 MiB (8%)Title : MVOLanguage : RussianService kind : Complete MainDefault : NoForced : No
Audio #3ID : 4Format : AC-3Format/Info : Audio Coding 3Codec ID : A_AC3Duration : 1 h 29 minBit rate mode : ConstantBit rate : 448 kb/sChannel(s) : 6 channelsChannel positions : Front: L C R, Side: L R, LFESampling rate : 48.0 kHzFrame rate : 31.250 FPS (1536 SPF)Bit depth : 16 bitsCompression mode : LossyStream size : 288 MiB (8%)Title : Original freLanguage : FrenchService kind : Complete MainDefault : NoForced : No
TextID : 5Format : UTF-8Codec ID : S_TEXT/UTF8Codec ID/Info : UTF-8 Plain TextTitle : Субтитры русскиеLanguage : RussianDefault : NoForced : No

Скриншоты

Чтобы скачать этот контент, Вам необходимо:
1. Скачать и установить торрент-клиент [клик для Windows], (для мобильного найдите на Play Маркет).
2. Кликнуть по [Скачать]


Внимание.
Если проверка ВЫ НЕ РОБОТ - не работает, значит Вы используете устаревший браузер.
Установите актуальный браузер и повторно кликните по [Скачать]

Запрещён Яндекс браузер. Загрузка файлов им является ошибочной.
Безопасность: торрент-клиент разрешён АВ Касперского.

[asmlocator.ru].t714814.torrent 
Торрент: Зарегистрирован [ 2020-03-08 04:45 ] · EC266B8540A31C5EA8126CDBA4F4D1083D56F279

Скачать .torrent

Скачать

17 KB

Статус: проверено
Скачан: 1 раз
Размер: 3.35 GB
terms.php
[Профиль] [ЛС]
Показать сообщения:    
Ответить на тему

Текущее время: 02-Июн 23:03

Часовой пояс: UTC ± 0



Вы не можете начинать темы
Вы не можете отвечать на сообщения
Вы не можете редактировать свои сообщения
Вы не можете удалять свои сообщения
Вы не можете голосовать в опросах
Вы не можете прикреплять файлы к сообщениям
Вы можете скачивать файлы
Верим фактам, а не вранью Путина! Факт, что Правительство ведёт Россию к истреблению.
Так как численность населения падает, даже не смотря на приток эмигрантов!
Русская нация вымирает и вырождается, смешиваясь с эмигрантами!
Факт, что военных и граждан предприятий заставляют голосовать за партию Единая Россия и Путина
ПОД СТРАХОМ УВОЛЬНЕНИЯ!
Нам не нужно Правительство, блокирующее личную жизнь, интернет, нарушающее сохранность данных.
Все эти действия финансируются за счёт народа!