Пушки Акимбо / Guns Akimbo (Джейсон Ли Хауден / Jason Lei Howden) [2019, Великобритания, Германия, Новая Зеландия, Боевик, комедия, WEB-DLRip] MVO (Mallorn Studio) + Sub Rus + Original Eng

Ответить на тему
Статистика раздачи
Размер:  857 MB   |    Зарегистрирован:  2 месяца 17 дней   |    Скачан:  0 раз

Полного источника не было: Никогда

 
   
 
 
Автор Сообщение

star21 ®

Пол: Женский

Стаж: 4 года 6 месяцев

Сообщений: 551945

Откуда: Екатеринбург

Создавать темы 07-Мар-2020 19:10

[Цитировать]

Пушки Акимбо / Guns Akimbo
Страна: Великобритания, Германия, Новая Зеландия
Жанр: Боевик, комедия
Год выпуска: 2019
Продолжительность: 01:37:48
Перевод: Любительский (многоголосый закадровый) Mallorn Studio
Субтитры: русские, английские
Оригинальная аудиодорожка: английский

Режиссер: Джейсон Ли Хауден / Jason Lei Howden
В ролях: Дэниэл Рэдклифф, Самара Уивинг, Риз Дэрби, Нед Деннехи, Наташа Лю Бордиццо, Марк Роули, Грант Боулер, Ханако Футман, Джош Роберт Томпсон, Сет Сьостранд
Описание: Майлз был обычным разработчиком видеоигр, пока его не втянули в кровавый квест. Незнакомцы вломились в дом, прибили к рукам два пистолета и похитили любимую девушку. Теперь Майлзу придётся сразиться с Никс - безжалостной чемпионкой подпольных игр на выживание.
Сэмпл: http://sendfile.su/1548484
Качество видео: WEB-DLRip
Формат видео: AVI
Видео: XVID, 830 Кбит/сек, 720x304 (2.40), 23.976 fps
Аудио: AC3, 192 kbps, 2 channels, 48 kHz, RUS
Аудио 2: AC3, 192 kbps, 2 channels, 48 kHz, ENG (внешняя)
Формат субтитров: softsub (SRT)

MediaInfo

ОбщееПолное имя                               : E:\TorrentsSeeding\PlagueStudios\ФИЛЬМЫ\Pushki.Akimbo.2019.XVID.WEB-DLRip.800MB.Plague.Studios\Guns Akimbo.aviФормат                                   : AVIФормат/Информация                        : Audio Video InterleaveРазмер файла                             : 722 МбайтПродолжительность                        : 1 ч. 37 м.Общий поток                              : 1032 Кбит/секНазвание фильма                          : Guns.Akimbo.2020.x264.WEB-DL.1080p.Plague.StudiosПрограмма кодирования                    : Lavf58.33.100
ВидеоИдентификатор : 0Формат : MPEG-4 VisualПрофиль формата : Advanced Simple@L5Настройки формата : BVOP2Параметр BVOP формата : 2Параметр QPel формата : НетПараметр GMC формата : Без точки переходаПараметр матрицы формата : Default (H.263)Идентификатор кодека : XVIDИдентификатор кодека/Подсказка : XviDПродолжительность : 1 ч. 37 м.Битрейт : 830 Кбит/секШирина : 720 пикселейВысота : 304 пикселяСоотношение сторон : 2,40:1Частота кадров : 23,976 (24000/1001) кадра/секЦветовое пространство : YUVСубдискретизация насыщенности : 4:2:0Битовая глубина : 8 битТип развёртки : ПрогрессивнаяМетод сжатия : С потерямиБит/(Пиксели*Кадры) : 0.158Размер потока : 581 Мбайт (80%)Заголовок : Guns AkimboБиблиотека кодирования : XviD 67
АудиоИдентификатор : 1Формат : AC-3Формат/Информация : Audio Coding 3Коммерческое название : Dolby DigitalИдентификатор кодека : 2000Продолжительность : 1 ч. 37 м.Вид битрейта : ПостоянныйБитрейт : 192 Кбит/секКаналы : 2 каналаChannel layout : L RЧастота : 48,0 КГцЧастота кадров : 31,250 кадров/сек (1536 SPF)Битовая глубина : 16 битМетод сжатия : С потерямиРазмер потока : 134 Мбайт (19%)Выравнивание : Соединение по промежуткамПродолжительность промежутка : 32 мс. (0,77 видеокадр)ServiceKind/String : Complete Main

Скриншоты

Чтобы скачать этот контент, Вам необходимо:
1. Скачать и установить торрент-клиент [клик для Windows], (для мобильного найдите на Play Маркет).
2. Кликнуть по [Скачать]


Внимание.
Если проверка ВЫ НЕ РОБОТ - не работает, значит Вы используете устаревший браузер.
Установите актуальный браузер и повторно кликните по [Скачать]

Запрещён Яндекс браузер. Загрузка файлов им является ошибочной.
Безопасность: торрент-клиент разрешён АВ Касперского.

[asmlocator.ru].t714717.torrent 
Торрент: Зарегистрирован [ 2020-03-07 19:10 ] · 35ACDD3F738FC3B89BBEC5AC134B0D65615AE9AB

Скачать .torrent

Скачать

34 KB

Статус: проверено
Скачан: 0 раз
Размер: 857 MB
terms.php
[Профиль] [ЛС]
Показать сообщения:    
Ответить на тему

Текущее время: 25-Май 00:44

Часовой пояс: UTC ± 0



Вы не можете начинать темы
Вы не можете отвечать на сообщения
Вы не можете редактировать свои сообщения
Вы не можете удалять свои сообщения
Вы не можете голосовать в опросах
Вы не можете прикреплять файлы к сообщениям
Вы можете скачивать файлы
Верим фактам, а не вранью Путина! Факт, что Правительство ведёт Россию к истреблению.
Так как численность населения падает, даже не смотря на приток эмигрантов!
Русская нация вымирает и вырождается, смешиваясь с эмигрантами!
Факт, что военных и граждан предприятий заставляют голосовать за партию Единая Россия и Путина
ПОД СТРАХОМ УВОЛЬНЕНИЯ!
Нам не нужно Правительство, блокирующее личную жизнь, интернет, нарушающее сохранность данных.
Все эти действия финансируются за счёт народа!