Тайная жизнь домашних животных / The Secret Life of Pets (Крис Рено, Ярроу Чейни / Chris Renaud, Yarrow Cheney) [2016, Япония, США, Франция, Мультфильм, комедия, приключения, семейный, DVD9] R5 Dub + Sub Rus + Original Eng

Ответить на тему
Статистика раздачи
Размер:  7.3 GB   |    Зарегистрирован:  9 дней   |    Скачан:  0 раз

Полного источника не было: Никогда

 
   
 
 
Автор Сообщение

star21 ®

Пол: Женский

Стаж: 4 года 2 месяца

Сообщений: 551946

Откуда: Екатеринбург

Создавать темы 11-Янв-2020 09:25

[Цитировать]

Тайная жизнь домашних животных / The Secret Life of Pets
«Думаете, они ждут вас у порога весь день?» Страна: Япония, США, Франция
Студии: Universal Pictures, Illumination Entertainment, Fuji Television Network Inc., Dentsu
Жанр: Мультфильм, комедия, приключения, семейный
Год выпуска: 2016Дата мировой премьеры: 16 июня 2016
Дата российской премьеры: 18 августа 2016, «UPI»Продолжительность: 01:22:55
Перевод: Профессиональный (дублированный) [Лицензия]
Субтитры: Английские, русские, хорватские, словенские, украинские
Оригинальная аудиодорожка: английскаяРежиссер: Крис Рено, Ярроу Чейни / Chris Renaud, Yarrow Cheney
Продюсеры: Джанет Хили, Бретт Хоффман, Кристофер Меледандри
Роли озвучивали: Луис С.К., Эрик Стоунстрит, Кевин Харт, Дженни Слейт, Элли Кемпер, Альберт Брукс, Лэйк Белл, Дэна Карви, Хэннибал Бёресс, Бобби МойнаханОписание:
Что делают домашние животные, пока хозяева пропадают на работе? С тоской смотрят в окно? Смиренно дремлют на коврике у двери? Как бы не так. Они ведут свою тайную жизнь.Доп. материалы:
- Люди, снимавшие "Домашних животных";
- Животные разговаривают: Знакомьтесь с актёрами;
- Всё о питомцах;
- Собачий парикмахер;
- Лучшие моменты от Снежка;
- Видеоклип-караоке "Lovely Day";
- Миньон Брайан о "Домашних животных";
- GoPro и "Тайная жизнь домашних животных";
- Ролик "Путь к славе".
(переведены субтитрами) Качество: DVD9 R5
Формат: DVD-VideoВидео: MPEG-2, 720x576@1024x576 (PAL 16:9), ~7000 Кбит/сек
Аудио 1: AC3 5.1, 384 Кбит/сек [Английский - оригинал]
Аудио 2: AC3 5.1, 384 Кбит/сек [Русский - дублированный]
Аудио 3: AC3 5.1, 384 Кбит/сек [Хорватский - дублированный]
Аудио 4: AC3 5.1, 384 Кбит/сек [Словенский - дублированный]
Аудио 5: AC3 5.1, 384 Кбит/сек [Украинский - дублированный]

DVDInfo

Title: The Secret Life of Pets (2016) DVD9 R5
Size: 7.30 Gb ( 7 656 438,00 KBytes ) - DVD-9
Enabled regions: 1, 2, 3, 4, 5, 6, 7, 8VTS_01 :
Play Length: 00:00:25
Video: PAL 16:9 (720x576) VBR, Auto Letterboxed
Audio:
English (Dolby AC3, 6 ch)VTS_02 :
Play Length: 00:00:05+00:04:00
Video: PAL 16:9 (720x576) VBR, Auto Pan&ScanVTS_03 :
Play Length: 00:00:08
Video: PAL 16:9 (720x576) VBR, Auto Letterboxed
Audio:
English (Dolby AC3, 6 ch)VTS_04 :
Play Length: 00:00:00
Video: PAL 16:9 (720x576) VBR, Auto LetterboxedVTS_05 :
Play Length: 00:03:33+00:01:59+00:03:53
Video: PAL 16:9 (720x576) VBR, Auto Letterboxed
Audio:
English (Dolby AC3, 2 ch)
Subtitles:
English
RussianVTS_06 :
Play Length: 00:00:00
Video: PAL 16:9 (720x576) VBR, Auto LetterboxedVTS_07 :
Play Length: 01:22:55
Video: PAL 16:9 (720x576) VBR, Auto Letterboxed
Audio:
English, AC3, 3/2 (L,C,R,SL,SR)+LFE ch, 384 kbps, Delay 0 mSec
Russian, AC3, 3/2 (L,C,R,SL,SR)+LFE ch, 384 kbps, Delay 0 mSec
Hrvatski, AC3, 3/2 (L,C,R,SL,SR)+LFE ch, 384 kbps, Delay 0 mSec
Slovenian, AC3, 3/2 (L,C,R,SL,SR)+LFE ch, 384 kbps, Delay 0 mSec
Ukrainian, AC3, 3/2 (L,C,R,SL,SR)+LFE ch, 384 kbps, Delay 0 mSec Subtitles:
English
Russian
Hrvatski
Slovenian
Ukrainian
Russian
Hrvatski
Slovenian
UkrainianVTS_08 :
Play Length: 00:00:32
Video: PAL 16:9 (720x576) VBR, Auto Letterboxed
Audio:
English (Dolby AC3, 2 ch)
Subtitles:
English
RussianVTS_09 :
Play Length: 00:00:56+00:00:52+00:00:54
Video: PAL 16:9 (720x576) VBR, Auto Letterboxed
Audio:
English (Dolby AC3, 2 ch)
Subtitles:
English
RussianVTS_10 :
Play Length: 00:03:39+00:06:11+00:01:13
Video: PAL 16:9 (720x576) VBR, Auto Letterboxed
Audio:
English (Dolby AC3, 2 ch)
Subtitles:
English
RussianVTS_11 :
Play Length: 00:01:05+00:01:06
Video: PAL 16:9 (720x576) VBR, Auto Letterboxed
Audio:
English (Dolby AC3, 6 ch)
Subtitles:
English
RussianVTS_12 :
Play Length: 00:08:27+00:01:28+00:01:42+00:01:55+00:01:53+{00:01:45}
Video: PAL 16:9 (720x576) VBR, Auto Letterboxed
Audio:
English (Dolby AC3, 2 ch)
Subtitles:
English
RussianVTS_13 :
Play Length: 00:02:18+00:01:10
Video: PAL 16:9 (720x576) VBR, Auto Letterboxed
Audio:
English (Dolby AC3, 2 ch)

MediaInfo

Общее
Полное имя : D:\Torrents\The Secret Life of Pets (2016) DVD9 R5\VIDEO_TS\VTS_07_1.VOB
Формат : MPEG-PS
Размер файла : 1024 Мбайт
Продолжительность : 15 м. 42 с.
Режим общего битрейта : Переменный
Общий поток : 9107 Кбит/секВидео
Идентификатор : 224 (0xE0)
Формат : MPEG Video
Версия формата : Version 2
Профиль формата : Main@Main
Настройки формата : CustomMatrix / BVOP
Параметр BVOP формата : Да
Параметр матрицы формата : Выборочная
Параметр GOP формата : Variable
Структура изображения : Frame
Продолжительность : 15 м. 42 с.
Вид битрейта : Переменный
Битрейт : 7006 Кбит/сек
Максимальный битрейт : 9800 Кбит/сек
Ширина : 720 пикселей
Высота : 576 пикселей
Соотношение сторон : 16:9
Частота кадров : 25,000 кадров/сек
Стандарт вещания : PAL
Цветовое пространство : YUV
Субдискретизация насыщенности : 4:2:0
Битовая глубина : 8 бит
Тип развёртки : Чересстрочная
Порядок развёртки : Верхнее поле первое
Метод сжатия : С потерями
Бит/(Пиксели*Кадры) : 0.676
Временной код первого кадра : 00:59:59:00
Оригинал временного кода : Group of pictures header
Размер потока : 787 Мбайт (77%)Аудио #1
Идентификатор : 189 (0xBD)-128 (0x80)
Формат : AC-3
Формат/Информация : Audio Coding 3
Коммерческое название : Dolby Digital
Режим смешивания : DVD-Video
Продолжительность : 15 м. 42 с.
Вид битрейта : Постоянный
Битрейт : 384 Кбит/сек
Каналы : 6 каналов
Channel layout : L R C LFE Ls Rs
Частота : 48,0 КГц
Частота кадров : 31,250 кадров/сек (1536 SPF)
Битовая глубина : 16 бит
Метод сжатия : С потерями
Размер потока : 43,1 Мбайт (4%)
ServiceKind/String : Complete MainАудио #2
Идентификатор : 189 (0xBD)-129 (0x81)
Формат : AC-3
Формат/Информация : Audio Coding 3
Коммерческое название : Dolby Digital
Режим смешивания : DVD-Video
Продолжительность : 15 м. 42 с.
Вид битрейта : Постоянный
Битрейт : 384 Кбит/сек
Каналы : 6 каналов
Channel layout : L R C LFE Ls Rs
Частота : 48,0 КГц
Частота кадров : 31,250 кадров/сек (1536 SPF)
Битовая глубина : 16 бит
Метод сжатия : С потерями
Размер потока : 43,1 Мбайт (4%)
ServiceKind/String : Complete MainАудио #3
Идентификатор : 189 (0xBD)-130 (0x82)
Формат : AC-3
Формат/Информация : Audio Coding 3
Коммерческое название : Dolby Digital
Режим смешивания : DVD-Video
Продолжительность : 15 м. 42 с.
Вид битрейта : Постоянный
Битрейт : 384 Кбит/сек
Каналы : 6 каналов
Channel layout : L R C LFE Ls Rs
Частота : 48,0 КГц
Частота кадров : 31,250 кадров/сек (1536 SPF)
Битовая глубина : 16 бит
Метод сжатия : С потерями
Размер потока : 43,1 Мбайт (4%)
ServiceKind/String : Complete MainАудио #4
Идентификатор : 189 (0xBD)-131 (0x83)
Формат : AC-3
Формат/Информация : Audio Coding 3
Коммерческое название : Dolby Digital
Режим смешивания : DVD-Video
Продолжительность : 15 м. 42 с.
Вид битрейта : Постоянный
Битрейт : 384 Кбит/сек
Каналы : 6 каналов
Channel layout : L R C LFE Ls Rs
Частота : 48,0 КГц
Частота кадров : 31,250 кадров/сек (1536 SPF)
Битовая глубина : 16 бит
Метод сжатия : С потерями
Размер потока : 43,1 Мбайт (4%)
ServiceKind/String : Complete MainАудио #5
Идентификатор : 189 (0xBD)-132 (0x84)
Формат : AC-3
Формат/Информация : Audio Coding 3
Коммерческое название : Dolby Digital
Режим смешивания : DVD-Video
Продолжительность : 15 м. 42 с.
Вид битрейта : Постоянный
Битрейт : 384 Кбит/сек
Каналы : 6 каналов
Channel layout : L R C LFE Ls Rs
Частота : 48,0 КГц
Частота кадров : 31,250 кадров/сек (1536 SPF)
Битовая глубина : 16 бит
Метод сжатия : С потерями
Размер потока : 43,1 Мбайт (4%)
ServiceKind/String : Complete MainТекст #1
Идентификатор : 189 (0xBD)-32 (0x20)
Формат : RLE
Формат/Информация : Run-length encoding
Режим смешивания : DVD-VideoТекст #2
Идентификатор : 189 (0xBD)-33 (0x21)
Формат : RLE
Формат/Информация : Run-length encoding
Режим смешивания : DVD-VideoТекст #3
Идентификатор : 189 (0xBD)-34 (0x22)
Формат : RLE
Формат/Информация : Run-length encoding
Режим смешивания : DVD-VideoТекст #4
Идентификатор : 189 (0xBD)-35 (0x23)
Формат : RLE
Формат/Информация : Run-length encoding
Режим смешивания : DVD-VideoТекст #5
Идентификатор : 189 (0xBD)-36 (0x24)
Формат : RLE
Формат/Информация : Run-length encoding
Режим смешивания : DVD-VideoМеню

Скриншоты меню

Скриншоты доп. материалов

Скриншоты фильма

За предоставленный DVD спасибо большое AKIM2BРаздаю с 15:00 до 23:00 до 10 скачавших.

Чтобы скачать этот контент, Вам необходимо:
1. Скачать и установить торрент-клиент [клик для Windows], (для мобильного найдите на Play Маркет).
2. Кликнуть по [Скачать]


Внимание.
Если проверка ВЫ НЕ РОБОТ - не работает, значит Вы используете устаревший браузер.
Установите актуальный браузер и повторно кликните по [Скачать]
Безопасность: торрент-клиент разрешён АВ Касперского.

[asmlocator.ru].t714427.torrent 
Торрент: Зарегистрирован [ 2020-01-11 09:25 ] · 5866E0C81E05134DD25EF2994A22E66FE0A630F2

Скачать .torrent

Скачать

39 KB

Статус: проверено
Скачан: 0 раз
Размер: 7.3 GB
terms.php
[Профиль] [ЛС]
Показать сообщения:    
Ответить на тему

Текущее время: 21-Янв 06:50

Часовой пояс: UTC ± 0



Вы не можете начинать темы
Вы не можете отвечать на сообщения
Вы не можете редактировать свои сообщения
Вы не можете удалять свои сообщения
Вы не можете голосовать в опросах
Вы не можете прикреплять файлы к сообщениям
Вы можете скачивать файлы
Верим фактам, а не вранью Путина! Факт, что Правительство ведёт Россию к истреблению.
Так как численность населения падает, даже не смотря на приток эмигрантов!
Русская нация вымирает и вырождается, смешиваясь с эмигрантами!
Факт, что военных и граждан предприятий заставляют голосовать за партию Единая Россия и Путина
ПОД СТРАХОМ УВОЛЬНЕНИЯ!
Нам не нужно Правительство, блокирующее личную жизнь, интернет, нарушающее сохранность данных.
Все эти действия финансируются за счёт народа!