Предсказание броненосца / La profezia dell\'armadillo (Эмануеле Скаринджи / Emanuele Scaringi) [2018, Италия, драма, BDRip 720p] VO (Вадим Назаров) + Sub Eng + Original Ita

Ответить на тему
Статистика раздачи
Размер:  7.36 GB   |    Зарегистрирован:  9 дней   |    Скачан:  0 раз

Полного источника не было: Никогда

 
   
 
 
Автор Сообщение

star21 ®

Пол: Женский

Стаж: 4 года 2 месяца

Сообщений: 551946

Откуда: Екатеринбург

Создавать темы 11-Янв-2020 09:25

[Цитировать]

Предсказание броненосца / La profezia dell'armadillo Страна: Италия
Жанр: драма
Год выпуска: 2018
Продолжительность: 01:42:33Перевод: Одноголосый закадровый - Вадим Назаров
Субтитры: английские
Оригинальная аудиодорожка: итальянскийРежиссёр: Эмануеле Скаринджи / Emanuele Scaringi
Сценарий: Валерио Мастандреа / Valerio Mastandrea, Пьетро Мартинелли / Pietro Martinelli, Оскар Глиоти / Oscar Glioti, Дзерокалкаре / ZerocalcareВ ролях: Симоне Либерати / Simone Liberati, Валерио Апреа / Valerio Aprea, Пьетро Кастеллитто / Pietro Castellitto, Лаура Моранте / Laura Morante, Клаудия Пандольфи / Claudia Pandolfi, Теко Челио / Teco Celio, Диана Дель Буфало / Diana Del Bufalo, Гульельмо Поджи / Guglielmo Poggi, Валентино Кампителли / Valentino Campitelli, Касия Смутняк / Kasia Smutniak и др.Описание: Дзеро живёт на окраине Рима в районе Ребиббиа. Он — дизайнер-фрилансер, каждый день ездит от одной подработки к другой и ведёт очень однообразную жизнь. Возвращаясь домой, Дзеро встречает свою совесть, которая в образе броненосца беседует с ним и парадоксальным образом рассказывает о том, что происходит в мире. Смерть одноклассницы и первой подростковой любви Дзеро, Камиллы, которой он так и не признался в своих чувствах, заставляет его переосмыслить свою жизнь.По мотивам одноимённого графического романа Дзерокалкаре (Zerocalcare).Сэмпл: https://yadi.sk/i/-CH0O292Etcs5QТип релиза: BDRip 720p
Контейнер: MKVВидео: MPEG4 Video (H264), 1280x640, 24 fps, 9 Mbps
Аудио 1 (RUS): Dolby Digital AC3 5.1 640 kbps {Вадим Назаров}
Аудио 2 (ITA): Dolby Digital AC3 5.1 640 kbps {Итальянский}
Субтитры: Английские [SRT]

MediaInfo

x264 info: frame I:847   Avg QP:15.99  size:122360x264 info: frame P:28969 Avg QP:16.97  size: 60753x264 info: frame B:117864 Avg QP:17.51  size: 42876x264 info: consecutive B-frames:  1.5%  1.5%  5.7%  8.9% 13.9% 59.7%  4.9%  1.2%  1.2%  1.7%ОбщееУникальный идентификатор                 : 246822376624668702149448245886769301795 (0xB9B042B73F3B8E6FB827447AD8DE0923)Полное имя                               : F:\Release\La.profezia.dell'armadillo.2018.BDRip.720p.mkvФормат                                   : MatroskaВерсия формата                           : Version 2Размер файла                             : 7,36 ГбайтПродолжительность                        : 1 ч. 42 м.Общий поток                              : 10,3 Мбит/секДата кодирования                         : UTC 2019-12-25 17:15:13Программа кодирования                    : mkvmerge v9.7.1 ('Pandemonium') 32bitБиблиотека кодирования                   : libebml v1.3.4 + libmatroska v1.4.5ВидеоИдентификатор                            : 1Формат                                   : AVCФормат/Информация                        : Advanced Video CodecПрофиль формата                          : High@L4.1Настройки формата                        : CABAC / 9 Ref FramesПараметр CABAC формата                   : ДаПараметр RefFrames формата               : 9 кадровИдентификатор кодека                     : V_MPEG4/ISO/AVCПродолжительность                        : 1 ч. 42 м.Битрейт                                  : 9000 Кбит/секШирина                                   : 1280 пикселейВысота                                   : 640 пикселейСоотношение сторон                       : 2,000Режим частоты кадров                     : ПостоянныйЧастота кадров                           : 24,000 кадра/секЦветовое пространство                    : YUVСубдискретизация насыщенности            : 4:2:0Битовая глубина                          : 8 битТип развёртки                            : ПрогрессивнаяБит/(Пиксели*Кадры)                      : 0.458Размер потока                            : 6,44 Гбайт (88%)Библиотека кодирования                   : x264 core 157 r2958 57baac4Настройки программы                      : cabac=1 / ref=9 / deblock=1:-3:-3 / analyse=0x3:0x113 / me=umh / subme=10 / psy=1 / psy_rd=1.05:0.10 / mixed_ref=1 / me_range=24 / chroma_me=1 / trellis=2 / 8x8dct=1 / cqm=0 / deadzone=21,11 / fast_pskip=0 / chroma_qp_offset=-3 / threads=5 / lookahead_threads=1 / sliced_threads=0 / nr=0 / decimate=1 / interlaced=0 / bluray_compat=0 / constrained_intra=0 / bframes=9 / b_pyramid=2 / b_adapt=2 / b_bias=0 / direct=3 / weightb=1 / open_gop=0 / weightp=2 / keyint=240 / keyint_min=10 / scenecut=40 / intra_refresh=0 / rc=2pass / mbtree=0 / bitrate=9000 / ratetol=1.0 / qcomp=0.70 / qpmin=3 / qpmax=69 / qpstep=4 / cplxblur=20.0 / qblur=0.5 / ip_ratio=1.20 / pb_ratio=1.10 / aq=1:0.80Язык                                     : ItalianDefault                                  : ДаForced                                   : НетАудио #1Идентификатор                            : 2Формат                                   : AC-3Формат/Информация                        : Audio Coding 3Коммерческое название                    : Dolby DigitalИдентификатор кодека                     : A_AC3Продолжительность                        : 1 ч. 42 м.Вид битрейта                             : ПостоянныйБитрейт                                  : 640 Кбит/секКаналы                                   : 6 каналовChannel layout                           : L R C LFE Ls RsЧастота                                  : 48,0 КГцЧастота кадров                           : 31,250 кадров/сек (1536 SPF)Битовая глубина                          : 16 битМетод сжатия                             : С потерямиРазмер потока                            : 470 Мбайт (6%)Заголовок                                : Вадим НазаровЯзык                                     : RussianServiceKind/String                       : Complete MainDefault                                  : ДаForced                                   : НетАудио #2Идентификатор                            : 3Формат                                   : AC-3Формат/Информация                        : Audio Coding 3Коммерческое название                    : Dolby DigitalИдентификатор кодека                     : A_AC3Продолжительность                        : 1 ч. 42 м.Вид битрейта                             : ПостоянныйБитрейт                                  : 640 Кбит/секКаналы                                   : 6 каналовChannel layout                           : L R C LFE Ls RsЧастота                                  : 48,0 КГцЧастота кадров                           : 31,250 кадров/сек (1536 SPF)Битовая глубина                          : 16 битМетод сжатия                             : С потерямиРазмер потока                            : 470 Мбайт (6%)Заголовок                                : OriginalЯзык                                     : ItalianServiceKind/String                       : Complete MainDefault                                  : НетForced                                   : НетТекстИдентификатор                            : 4Формат                                   : UTF-8Идентификатор кодека                     : S_TEXT/UTF8Идентификатор кодека/Информация          : UTF-8 Plain TextПродолжительность                        : 1 ч. 38 м.Битрейт                                  : 63 бит/секElementCount                             : 1333Размер потока                            : 45,8 Кбайт (0%)Заголовок                                : EnglishЯзык                                     : EnglishDefault                                  : НетForced                                   : НетМеню00:00:00.000                             : it:1. Colloqui00:08:03.250                             : it:2. Spray al Peperoncino00:15:40.875                             : it:3. Il Computer00:22:24.500                             : it:4. Cavaliere Jedi00:32:08.208                             : it:5. L'atterraggio00:43:01.250                             : it:6. Vacanze Romane00:52:50.167                             : it:7. Giuda01:02:17.250                             : it:8. Greta01:12:24.375                             : it:9. La Profezia01:20:12.625                             : it:10. Attacchini01:28:07.250                             : it:11. Scarogiuro01:37:38.250                             : it:12. A.F.A.B.

Скриншоты


Чтобы скачать этот контент, Вам необходимо:
1. Скачать и установить торрент-клиент [клик для Windows], (для мобильного найдите на Play Маркет).
2. Кликнуть по [Скачать]


Внимание.
Если проверка ВЫ НЕ РОБОТ - не работает, значит Вы используете устаревший браузер.
Установите актуальный браузер и повторно кликните по [Скачать]
Безопасность: торрент-клиент разрешён АВ Касперского.

[asmlocator.ru].t714421.torrent 
Торрент: Зарегистрирован [ 2020-01-11 09:25 ] · 2028E6A35176556FFDF72B1D5702DB79AB53E124

Скачать .torrent

Скачать

37 KB

Статус: проверено
Скачан: 0 раз
Размер: 7.36 GB
terms.php
[Профиль] [ЛС]
Показать сообщения:    
Ответить на тему

Текущее время: 21-Янв 06:52

Часовой пояс: UTC ± 0



Вы не можете начинать темы
Вы не можете отвечать на сообщения
Вы не можете редактировать свои сообщения
Вы не можете удалять свои сообщения
Вы не можете голосовать в опросах
Вы не можете прикреплять файлы к сообщениям
Вы можете скачивать файлы
Верим фактам, а не вранью Путина! Факт, что Правительство ведёт Россию к истреблению.
Так как численность населения падает, даже не смотря на приток эмигрантов!
Русская нация вымирает и вырождается, смешиваясь с эмигрантами!
Факт, что военных и граждан предприятий заставляют голосовать за партию Единая Россия и Путина
ПОД СТРАХОМ УВОЛЬНЕНИЯ!
Нам не нужно Правительство, блокирующее личную жизнь, интернет, нарушающее сохранность данных.
Все эти действия финансируются за счёт народа!