Любовь во время истерии / Alska mig till dods / Solo con tu pareja (Альфонсо Куарон / Alfonso Cuaron) [1991, Мексика, Мелодрама, Комедия, DVD9(Custom)] Mvo (DVD Magic) + Sub Eng, Rus + Original Esp / Criterion Collection#353

Ответить на тему
Статистика раздачи
Размер:  7.83 GB   |    Зарегистрирован:  10 дней   |    Скачан:  0 раз

Полного источника не было: Никогда

 
   
 
 
Автор Сообщение

star21 ®

Пол: Женский

Стаж: 4 года 2 месяца

Сообщений: 551946

Откуда: Екатеринбург

Создавать темы 11-Янв-2020 02:55

[Цитировать]

Любовь во время истерии / Alska mig till dods / Solo con tu pareja / Criterion Collection#353 Страна:МексикаСтудия:Esperanto Filmoj, Fondo de Fomento a la Calidad Cinematografica, Instituto Mexicano de Cinematografia (IMCINE), Solo Peliculas.Жанр:Мелодрама, КомедияГод выпуска:1991
Продолжительность:01:34:13Производство:The Criterion Collection#353Перевод:Профессиональный (Многоголосый закадровый) DVD MagicСубтитры:Английские, РусскиеПремьера (мир):9.09.1991
Режиссер:Альфонсо Куарон / Alfonso CuaronВ ролях:Даниэль Хименес Качо, Клаудия Рамирес, Луис Де Икаса, Астрид Хадад, Добрина Любомирова, Изабель Бенет, Тосиро Хисаки, Карлос Акасоне, Рикардо Дальмаччи, Клаудия ФернандезОписание:Две любовницы, одновременно ждущие страсти в двух разных квартирах, разумеется, не проблема для пылкого бабника Томаса. Как заправский акробат, он даже пробежит по карнизу, лишь бы не разочаровать своих пассий! И если бы не очаровательная стюардесса в окне по соседству, в которую Томаса угораздило попутно влюбиться, он бы удержался на грани…Но теперь обиженная любовница в отместку заявит Томасу, что у него СПИД! Как проведет свои «последние дни» настоящий Дон Жуан — впадет в истерию или же устроит себе великолепный финальный любовный роман? Доп. информация:Исходник найден в сети.Огромное Спасибо Всем, без чьей помощи этот релиз не состоялся бы!Сценарий:Альфонсо Куарон, Карлос Куарон Продюсер:Альфонсо Куарон, Педро Армендарис мл., Игнасио Дуран ЛоэраОператор:Эммануэль ЛюбецкиКомпозитор:Карлос ВарманХудожник:Бригитта Брох, Мария Эстела ФернандесМонтаж:Альфонсо Куарон, Луис Патлан

Награды и номинации

Рецензия

Софт

PgcDemux 1.2.0.5 -> разделение компонентов диска на файлы.
BeHappy - AC3 -> Wav.
Sound Forge pro 10 -> синхронизация звука.
Subtitle Workshop, MaestroSBT, DVD SubEdit -> субтитры.
MuxMan DVD authoring Professional -> мультиплексирование и авторинг.
DVDRemake Pro 3.6.4 -> реавторинг DVD.
DVD Shrink 3.2 -> Сэмпл.

Бонусы:(Без перевода)

--New, restored high-definition digital transfer, supervised and approved by cinematographer Emmanuel Lubezki
--Making "Solo con tu pareja", a collection of new video interviews with Cuaron, screenwriter Carlos Cuaron, and actor Daniel Gimenez Cacho
--Short films by Alfonso Cuaron and Carlos Cuaron
--Original theatrical trailer(УДАЛЕНО)
--New and improved English subtitle translation
--Plus: A booklet featuring a new essay by Ryan F. Long, and a "biography" of Tomas Tomas, written by Carlos Cuaron
--Cover based on a theatrical poster

Точка перехода.

Меню:Английский, анимированное, озвученное.Тип релиза:DVD9 (Custom)Контейнер:DVD-Video
Видео:NTSC 16:9 (720x480) VBR, Auto Letterboxed, 6837 Кбит/сек, 23,976 (24000/1001) кадра/сек Аудио 1:Русский:AC3, 2 ch, 48.0 KHz, 192 Кбит/сек / Профессиональный (Многоголосый закадровый) DVD MagicАудио 2:Испанский:AC3, 2 ch, 48.0 KHz, 192 Кбит/сек / ОригиналФормат субтитров:prerendered (DVD/IDX+SUB)

Dvd Info

Title: Solo con tu pareja DVD-9_Custom_Criterion#353
Size: 7.83 Gb ( 8 207 018,00 KBytes ) - DVD-9
Enabled regions: 1, 2, 3, 4, 5, 6, 7, 8VTS_01 :
Play Length: 00:00:00
Video: NTSC 16:9 (720x480) VBR, Auto LetterboxedVTS_02 :
Play Length: 00:00:00
Video: NTSC 4:3 (720x480) VBRVTS_03 :
Play Length: 00:23:45
Video: NTSC 4:3 (720x480) VBR
Audio:
Espanol (Dolby AC3, 1 ch)
Subtitles:
EnglishVTS_04 :
Play Length: 00:00:01
Video: NTSC 16:9 (720x480) VBR, Auto Letterboxed
Audio:
Espanol (Dolby AC3, 1 ch)
Subtitles:
EnglishVTS_05 :
Play Length: 00:05:04
Video: NTSC 4:3 (720x480) VBR
Audio:
Espanol (Dolby AC3, 1 ch)VTS_06 :
Play Length: 00:00:01
Video: NTSC 16:9 (720x480) VBR, Auto Pan&ScanVTS_07 :
Play Length: 01:34:13
Video: NTSC 16:9 (720x480) VBR, Auto Letterboxed
Audio:
Russian (Dolby AC3, 2 ch)
Espanol (Dolby AC3, 2 ch)
Subtitles:
English
RussianVTS_08 :
Play Length: 00:28:49
Video: NTSC 16:9 (720x480) VBR, Auto Letterboxed
Audio:
Espanol (Dolby AC3, 2 ch)
Subtitles:
English

Mediainfo

Общее
Полное имя : F:\Solo con tu pareja DVD-9_Custom_Criterion#353\VIDEO_TS\VTS_07_1.VOB
Формат : MPEG-PS
Размер файла : 1024 Мбайт
Продолжительность : 19 м. 25 с.
Режим общего битрейта : Переменный
Общий поток : 7368 Кбит/секВидео
Идентификатор : 224 (0xE0)
Формат : MPEG Video
Версия формата : Version 2
Профиль формата : Main@Main
Настройки формата : CustomMatrix / BVOP
Параметр BVOP формата : Да
Параметр матрицы формата : Выборочная
Параметр GOP формата : M=3, N=12
Продолжительность : 19 м. 25 с.
Вид битрейта : Переменный
Битрейт : 6837 Кбит/сек
Максимальный битрейт : 9588 Кбит/сек
Ширина : 720 пикселей
Высота : 480 пикселей
Соотношение сторон : 16:9
Частота кадров : 29,970 (30000/1001) кадров/сек
Стандарт вещания : NTSC
Цветовое пространство : YUV
Субдискретизация насыщенности : 4:2:0
Битовая глубина : 8 бит
Метод сжатия : С потерями
Бит/(Пиксели*Кадры) : 0.660
Временной код первого кадра : 00:59:32:15
Оригинал временного кода : Group of pictures header
GOP, открыто/закрыто : Открыто
GOP, открыто/закрыто на первом кадре : Закрыто
Размер потока : 950 Мбайт (93%)Аудио #1
Идентификатор : 189 (0xBD)-128 (0x80)
Формат : AC-3
Формат/Информация : Audio Coding 3
Коммерческое название : Dolby Digital
Режим смешивания : DVD-Video
Продолжительность : 19 м. 25 с.
Вид битрейта : Постоянный
Битрейт : 192 Кбит/сек
Каналы : 2 канала
ChannelLayout : L R
Частота : 48,0 КГц
Частота кадров : 31,250 кадров/сек (1536 SPF)
Метод сжатия : С потерями
Размер потока : 26,7 Мбайт (3%)
ServiceKind/String : Complete MainАудио #2
Идентификатор : 189 (0xBD)-129 (0x81)
Формат : AC-3
Формат/Информация : Audio Coding 3
Коммерческое название : Dolby Digital
Режим смешивания : DVD-Video
Продолжительность : 19 м. 25 с.
Вид битрейта : Постоянный
Битрейт : 192 Кбит/сек
Каналы : 2 канала
ChannelLayout : L R
Частота : 48,0 КГц
Частота кадров : 31,250 кадров/сек (1536 SPF)
Метод сжатия : С потерями
Размер потока : 26,7 Мбайт (3%)
ServiceKind/String : Complete MainТекст #1
Идентификатор : 189 (0xBD)-32 (0x20)
Формат : RLE
Формат/Информация : Run-length encoding
Режим смешивания : DVD-VideoТекст #2
Идентификатор : 189 (0xBD)-33 (0x21)
Формат : RLE
Формат/Информация : Run-length encoding
Режим смешивания : DVD-VideoТекст #3
Идентификатор : 189 (0xBD)-34 (0x22)
Формат : RLE
Формат/Информация : Run-length encoding
Режим смешивания : DVD-Video

Скриншоты меню

Скриншоты фильма

Скриншоты доп. материалов

Уважаемые пользователи!Найдите пару минут поблагодарить релизера и высказаться в топике раздачи.Ваше мнение - бальзам для раздающего и пища для ума остальным пользователям.Мои раздачи

Чтобы скачать этот контент, Вам необходимо:
1. Скачать и установить торрент-клиент [клик для Windows], (для мобильного найдите на Play Маркет).
2. Кликнуть по [Скачать]


Внимание.
Если проверка ВЫ НЕ РОБОТ - не работает, значит Вы используете устаревший браузер.
Установите актуальный браузер и повторно кликните по [Скачать]
Безопасность: торрент-клиент разрешён АВ Касперского.

[asmlocator.ru].t714283.torrent 
Торрент: Зарегистрирован [ 2020-01-11 02:55 ] · ACE7D84050107EA2E46CED62D67B0F52E518BC5E

Скачать .torrent

Скачать

42 KB

Статус: проверено
Скачан: 0 раз
Размер: 7.83 GB
terms.php
[Профиль] [ЛС]
Показать сообщения:    
Ответить на тему

Текущее время: 21-Янв 06:51

Часовой пояс: UTC ± 0



Вы не можете начинать темы
Вы не можете отвечать на сообщения
Вы не можете редактировать свои сообщения
Вы не можете удалять свои сообщения
Вы не можете голосовать в опросах
Вы не можете прикреплять файлы к сообщениям
Вы можете скачивать файлы
Верим фактам, а не вранью Путина! Факт, что Правительство ведёт Россию к истреблению.
Так как численность населения падает, даже не смотря на приток эмигрантов!
Русская нация вымирает и вырождается, смешиваясь с эмигрантами!
Факт, что военных и граждан предприятий заставляют голосовать за партию Единая Россия и Путина
ПОД СТРАХОМ УВОЛЬНЕНИЯ!
Нам не нужно Правительство, блокирующее личную жизнь, интернет, нарушающее сохранность данных.
Все эти действия финансируются за счёт народа!