В Украине / В Україні (телеканал "Настоящее время") [2020, документальный, SATRip] 1 выпуск

Ответить на тему
Статистика раздачи
Размер:  180 MB   |    Зарегистрирован:  11 дней   |    Скачан:  0 раз

Полного источника не было: Никогда

 
   
 
 
Автор Сообщение

star21 ®

Пол: Женский

Стаж: 4 года 2 месяца

Сообщений: 551946

Откуда: Екатеринбург

Создавать темы 09-Янв-2020 19:05

[Цитировать]

В Украине / В Україні Дата/Год выпуска: 2020
Страна: Украина
Жанр: документальный
Продолжительность: 1x24 мин.
Перевод: Не требуется
Русские субтитры: нетОригинальная аудиодорожка: русский
Режиссер: Антонина Маровди
Телеканал: Спутниковый телеканал "Настоящее время" (Current Time TV) SDОписание: "#ВУкраине" — авторский проект Антонины Маровди, в котором она знакомит зрителя с уникальными людьми, показывает места и явления, о которых мало знают даже в самой Украине. Герои проекта — необычные люди. Они меняют не только свои судьбы, но и судьбу страны, достигают успеха не благодаря, а вопреки, принимают решения, которые влияют и на жизни окружающих. Они — часть огромной и необычной страны Украина.Сэмпл: https://www.sendspace.com/file/52o26uкачество: SATRip
формат: AVI
Видео: Xvid 720x400 (16:9) ~896kbps 25fps
Аудио: MP3 128kbps 48kHz 1ch

Список выпусков/серий

1. Орбита. Город-призрак. Населённый пункт, которого нет даже на карте. Его строительство начали еще 40 лет назад. Здесь планировали возвести несколько жилых массивов для двадцати тысяч работников будущей Чигиринской атомной станции. Но после чернобыльской трагедии стройка застыла, а вместе с ней замер и сам город. Жилыми остались только две пятиэтажки. Остальные здания - заброшены и разграблены, ими интересуются только сталкеры. Для 150 оставшихся жителей, здесь работает единственный магазинчик, расположившийся в одной из квартир. Аптеки, почты и больницы - нет. Фельдшер приезжает раз в неделю. Цены на квартиры здесь одни их самых низких в стране и колеблются от 200 до 2000 долларов, что привлекло сюда переселенцев с востока Украины.

MediaInfo

GeneralComplete name               : D:\Мои раздачи\Настоящее время\В Украине (2020)\01. Орбита. Город-призрак.aviFormat                      : AVIFormat/Info                 : Audio Video InterleaveFile size                   : 180 MiBDuration                    : 24 min 21 sOverall bit rate            : 1 031 kb/sVideoID                          : 0Format                      : MPEG-4 VisualFormat profile              : Advanced Simple@L5Format settings             : BVOP2Format settings, BVOP       : 2Format settings, QPel       : NoFormat settings, GMC        : No warppointsFormat settings, Matrix     : Default (H.263)Codec ID                    : XVIDCodec ID/Hint               : XviDDuration                    : 24 min 21 sBit rate                    : 894 kb/sWidth                       : 720 pixelsHeight                      : 400 pixelsDisplay aspect ratio        : 16:9Frame rate                  : 25.000 FPSColor space                 : YUVChroma subsampling          : 4:2:0Bit depth                   : 8 bitsScan type                   : ProgressiveCompression mode            : LossyBits/(Pixel*Frame)          : 0.124Stream size                 : 156 MiB (87%)Writing library             : XviD 67AudioID                          : 1Format                      : MPEG AudioFormat version              : Version 1Format profile              : Layer 3Codec ID                    : 55Codec ID/Hint               : MP3Duration                    : 24 min 21 sBit rate mode               : ConstantBit rate                    : 128 kb/sChannel(s)                  : 1 channelSampling rate               : 48.0 kHzCompression mode            : LossyStream size                 : 22.3 MiB (12%)Alignment                   : Split accross interleavesInterleave, duration        : 40  ms (1.00 video frame)Interleave, preload duratio : 500  ms

Скриншоты

Чтобы скачать этот контент, Вам необходимо:
1. Скачать и установить торрент-клиент [клик для Windows], (для мобильного найдите на Play Маркет).
2. Кликнуть по [Скачать]


Внимание.
Если проверка ВЫ НЕ РОБОТ - не работает, значит Вы используете устаревший браузер.
Установите актуальный браузер и повторно кликните по [Скачать]
Безопасность: торрент-клиент разрешён АВ Касперского.

[asmlocator.ru].t714072.torrent 
Торрент: Зарегистрирован [ 2020-01-09 19:05 ] · D034EC425EC8F29229CCEF8B86A21243667726EF

Скачать .torrent

Скачать

15 KB

Статус: проверено
Скачан: 0 раз
Размер: 180 MB
terms.php
[Профиль] [ЛС]
Показать сообщения:    
Ответить на тему

Текущее время: 21-Янв 06:51

Часовой пояс: UTC ± 0



Вы не можете начинать темы
Вы не можете отвечать на сообщения
Вы не можете редактировать свои сообщения
Вы не можете удалять свои сообщения
Вы не можете голосовать в опросах
Вы не можете прикреплять файлы к сообщениям
Вы можете скачивать файлы
Верим фактам, а не вранью Путина! Факт, что Правительство ведёт Россию к истреблению.
Так как численность населения падает, даже не смотря на приток эмигрантов!
Русская нация вымирает и вырождается, смешиваясь с эмигрантами!
Факт, что военных и граждан предприятий заставляют голосовать за партию Единая Россия и Путина
ПОД СТРАХОМ УВОЛЬНЕНИЯ!
Нам не нужно Правительство, блокирующее личную жизнь, интернет, нарушающее сохранность данных.
Все эти действия финансируются за счёт народа!