Месть ангела / Ангелочек-мстительница / Avenging Angel (Роберт Винсент О\'Нилл / Robert Vincent O\'Neill) [1985, США, Боевик, триллер, криминал, BDRip] MVO + Original Eng

Ответить на тему
Статистика раздачи
Размер:  1.45 GB   |    Зарегистрирован:  12 дней   |    Скачан:  0 раз

Полного источника не было: Никогда

 
   
 
 
Автор Сообщение

star21 ®

Пол: Женский

Стаж: 4 года 2 месяца

Сообщений: 551946

Откуда: Екатеринбург

Создавать темы 09-Янв-2020 00:30

[Цитировать]

Месть ангела / Ангелочек-мстительница / Avenging Angel Страна: США
Жанр: Боевик, триллер, криминал
Год выпуска: 1985
Продолжительность: 01:33:49Перевод: Профессиональный (многоголосый закадровый)
Субтитры: нет
Оригинальная аудиодорожка: английскийРежиссер: Роберт Винсент О'Нилл / Robert Vincent O'NeillВ ролях: Бетси Расселл
Рори Кэлхун
Сьюзен Тайррелл
Осси Дэвис
Роберт Ф. Лайонс
Стивен М. Портер
Пол Ламберт
Бэрри Перл
Эсте Чэндлер
Тим РоссовичОписание: Бывшая малолетняя проститутка Молли Стюарт узнает, что убит лейтенант Эндрюс, который когда-то помог ей покончить с уличной жизнью. Молли бросает свою благополучную жизнь и учебу в институте, чтобы вернуться на бульвар Голливуд и отомстить за его смерть.
Она любит головокружительные трюки, когда адреналин выбрасывается в кровь. Она участница всех погонь и беспощадных перестрелок. В жестокой борьбе с преступниками Ангел вершит свою месть…Доп. информация: За наводку на релиз спасибо arturklop , а также мне за синхрон дорожки https://rutracker.org/forum/viewtopic.php?t=2853335Сэмпл: https://yadi.sk/i/x7X_jsomHAkcMAКачество видео: BDRip (Avenging.Angel.1985.1080p.BluRay.REMUX.AVC.DTS-HD.MA.2.0-FGT)
Формат видео: AVIВидео: XviD , 720x384 (1.76:1), 23.976 fps, 1 817 kb/s
Аудио: AC3 , 48 kHz , 192.00 kbps avg , 2/0 (L,R)
Аудио 2: AC3 , 48 kHz , 192.00 kbps avg , 2/0 (L,R)

MediaInfo

Complete name            Месть ангела - Avenging Angel 1985.aviFormat                      : AVIFormat/Info                 : Audio Video InterleaveFile size                   : 1.45 GiBDuration                    : 1 h 33 minOverall bit rate            : 2 215 kb/sWriting application         : VirtualDubMod 1.5.10.3 | www.virtualdub-fr.org || (build 2550/release)Writing library             : VirtualDubMod build 2550/releaseVideoID                          : 0Format                      : MPEG-4 VisualFormat profile              : Advanced Simple@L5Format settings             : BVOP1 / Custom MatrixFormat settings, BVOP       : 1Format settings, QPel       : NoFormat settings, GMC        : No warppointsFormat settings, Matrix     : CustomCodec ID                    : XVIDCodec ID/Hint               : XviDDuration                    : 1 h 33 minBit rate                    : 1 817 kb/sWidth                       : 720 pixelsHeight                      : 384 pixelsDisplay aspect ratio        : 1.85:1Frame rate                  : 23.976 (24000/1001) FPSColor space                 : YUVChroma subsampling          : 4:2:0Bit depth                   : 8 bitsScan type                   : ProgressiveCompression mode            : LossyBits/(Pixel*Frame)          : 0.274Stream size                 : 1.19 GiB (82%)Writing library             : XviD 73Audio #1ID                          : 1Format                      : AC-3Format/Info                 : Audio Coding 3Commercial name             : Dolby DigitalCodec ID                    : 2000Duration                    : 1 h 33 minBit rate mode               : ConstantBit rate                    : 192 kb/sChannel(s)                  : 2 channelsChannel layout              : L RSampling rate               : 48.0 kHzFrame rate                  : 31.250 FPS (1536 SPF)Bit depth                   : 16 bitsCompression mode            : LossyStream size                 : 129 MiB (9%)Alignment                   : Split across interleavesInterleave, duration        : 42  ms (1.00 video frame)Interleave, preload duratio : 500  msService kind                : Complete MainAudio #2ID                          : 2Format                      : AC-3Format/Info                 : Audio Coding 3Commercial name             : Dolby DigitalCodec ID                    : 2000Duration                    : 1 h 33 minBit rate mode               : ConstantBit rate                    : 192 kb/sChannel(s)                  : 2 channelsChannel layout              : L RSampling rate               : 48.0 kHzFrame rate                  : 31.250 FPS (1536 SPF)Bit depth                   : 16 bitsCompression mode            : LossyStream size                 : 129 MiB (9%)Alignment                   : Split across interleavesInterleave, duration        : 42  ms (1.00 video frame)Interleave, preload duratio : 500  ms

Скриншоты

Чтобы скачать этот контент, Вам необходимо:
1. Скачать и установить торрент-клиент [клик для Windows], (для мобильного найдите на Play Маркет).
2. Кликнуть по [Скачать]


Внимание.
Если проверка ВЫ НЕ РОБОТ - не работает, значит Вы используете устаревший браузер.
Установите актуальный браузер и повторно кликните по [Скачать]
Безопасность: торрент-клиент разрешён АВ Касперского.

[asmlocator.ru].t714051.torrent 
Торрент: Зарегистрирован [ 2020-01-09 00:30 ] · 306515DA0E7311C42DF02DBCB2D651BC30370111

Скачать .torrent

Скачать

15 KB

Статус: проверено
Скачан: 0 раз
Размер: 1.45 GB
terms.php
[Профиль] [ЛС]
Показать сообщения:    
Ответить на тему

Текущее время: 21-Янв 06:51

Часовой пояс: UTC ± 0



Вы не можете начинать темы
Вы не можете отвечать на сообщения
Вы не можете редактировать свои сообщения
Вы не можете удалять свои сообщения
Вы не можете голосовать в опросах
Вы не можете прикреплять файлы к сообщениям
Вы можете скачивать файлы
Верим фактам, а не вранью Путина! Факт, что Правительство ведёт Россию к истреблению.
Так как численность населения падает, даже не смотря на приток эмигрантов!
Русская нация вымирает и вырождается, смешиваясь с эмигрантами!
Факт, что военных и граждан предприятий заставляют голосовать за партию Единая Россия и Путина
ПОД СТРАХОМ УВОЛЬНЕНИЯ!
Нам не нужно Правительство, блокирующее личную жизнь, интернет, нарушающее сохранность данных.
Все эти действия финансируются за счёт народа!