Как вода для шоколада / Опаленные страстью / Like Water for Chocolate / Como agua para chocolate (Альфонсо Арау / Alfonso Arau) [1992, Мексика, драма, мелодрама, HDRip] DVO + Original Spa

Ответить на тему
Статистика раздачи
Размер:  1.42 GB   |    Зарегистрирован:  12 дней   |    Скачан:  0 раз

Полного источника не было: Никогда

 
   
 
 
Автор Сообщение

star21 ®

Пол: Женский

Стаж: 4 года 2 месяца

Сообщений: 551946

Откуда: Екатеринбург

Создавать темы 09-Янв-2020 00:30

[Цитировать]

Как вода для шоколада / Опаленные страстью / Like Water for Chocolate / Como agua para chocolate«A feast for the senses!» Страна: Мексика
Жанр: драма, мелодрама
Год выпуска: 1992
Продолжительность: 01:45:24Перевод: Профессиональный (двухголосый закадровый)
Субтитры: нет
Оригинальная аудиодорожка: испанскаяРежиссер: Альфонсо Арау / Alfonso ArauВ ролях: Марко Леонарди, Луми Кавасос, Рехина Торне, Марио Иван Мартинес, Ада Карраско, Ярели Арисменди, Клодетта Маилье, Пилар Аранда, Фарнесио де Берналь, Хоакин Гарридо.Описание: Тита и Педро любят друг друга. Но мать Титы не дает согласия на их брак: по давней семейной традиции младшая дочь должна заботиться о матери до самой ее смерти. Чтобы быть рядом с любимой, Педро… решает жениться на ее сестре! Живя под одной крышей, влюбленные лишены даже возможности выражать свои истинные чувства друг к другу.И Тита начинает выражать одолевающие ее эмоции при помощи экзотических блюд, подаваемых к семейному столу. Кто знает, к чему может привести эта скрытая любовь?[imdb]http://www.imdb.com/title/tt0103994[/imdb] Доп. информация: Благодарность за HDRip направляется edich2
Предоставление перевода с VHS (Pyramid Home Video) - серый75, за что ему огромное спасибо
Синхронизация звука - Arle-kino Качество видео: HDRip
Формат видео: AVIВидео: 704x384 (1.83:1), 23.976 fps, XviD build 73 ~1525 kbps avg, 0.23 bit/pixel
Аудио 1: 48 kHz, AC3 Dolby Digital, 2/0 (L,R) ch, ~192 kbps - Rus
Аудио 2: 48 kHz, AC3 Dolby Digital, 2/0 (L,R) ch, ~192 kbps - Esp

MediaInfo

GeneralComplete name               : D:\Public\Como agua para chocolate (1992) HDRip [Rus & Esp].aviFormat                      : AVIFormat/Info                 : Audio Video InterleaveFile size                   : 1.42 GiBDuration                    : 1 h 45 minOverall bit rate            : 1 924 kb/sMovie name                  : Como agua para chocolateDirector                    : Alfonso ArauGenre                       : Drama/RomanceWriting application         : VirtualDubMod 1.5.10.2 (build 2540/release)Original source form/Name   : MovieVideoID                          : 0Format                      : MPEG-4 VisualFormat profile              : Advanced Simple@L5Format settings, BVOP       : 1Format settings, QPel       : NoFormat settings, GMC        : No warppointsFormat settings, Matrix     : CustomCodec ID                    : XVIDCodec ID/Hint               : XviDDuration                    : 1 h 45 minBit rate                    : 1 526 kb/sWidth                       : 704 pixelsHeight                      : 384 pixelsDisplay aspect ratio        : 1.85:1Frame rate                  : 23.976 (24000/1001) FPSColor space                 : YUVChroma subsampling          : 4:2:0Bit depth                   : 8 bitsScan type                   : ProgressiveCompression mode            : LossyBits/(Pixel*Frame)          : 0.235Stream size                 : 1.12 GiB (79%)Writing library             : XviD 73Audio #1ID                          : 1Format                      : AC-3Format/Info                 : Audio Coding 3Format settings, Endianness : BigCodec ID                    : 2000Duration                    : 1 h 45 minBit rate mode               : ConstantBit rate                    : 192 kb/sChannel(s)                  : 2 channelsChannel positions           : Front: L RSampling rate               : 48.0 kHzFrame rate                  : 31.250 FPS (1536 SPF)Bit depth                   : 16 bitsCompression mode            : LossyStream size                 : 145 MiB (10%)Alignment                   : Split accross interleavesInterleave, duration        : 42  ms (1.00 video frame)Interleave, preload duratio : 500  msTitle                       : RusService kind                : Complete MainAudio #2ID                          : 2Format                      : AC-3Format/Info                 : Audio Coding 3Format settings, Endianness : BigCodec ID                    : 2000Duration                    : 1 h 45 minBit rate mode               : ConstantBit rate                    : 192 kb/sChannel(s)                  : 2 channelsChannel positions           : Front: L RSampling rate               : 48.0 kHzFrame rate                  : 31.250 FPS (1536 SPF)Bit depth                   : 16 bitsCompression mode            : LossyStream size                 : 145 MiB (10%)Alignment                   : Split accross interleavesInterleave, duration        : 42  ms (1.00 video frame)Interleave, preload duratio : 500  msTitle                       : EspService kind                : Complete Main

Скриншот c названием фильма

Скриншоты

Чтобы скачать этот контент, Вам необходимо:
1. Скачать и установить торрент-клиент [клик для Windows], (для мобильного найдите на Play Маркет).
2. Кликнуть по [Скачать]


Внимание.
Если проверка ВЫ НЕ РОБОТ - не работает, значит Вы используете устаревший браузер.
Установите актуальный браузер и повторно кликните по [Скачать]
Безопасность: торрент-клиент разрешён АВ Касперского.

[asmlocator.ru].t714015.torrent 
Торрент: Зарегистрирован [ 2020-01-09 00:30 ] · F4E78F17C369C41EF738C5511F04B3C8F35034CC

Скачать .torrent

Скачать

15 KB

Статус: проверено
Скачан: 0 раз
Размер: 1.42 GB
terms.php
[Профиль] [ЛС]
Показать сообщения:    
Ответить на тему

Текущее время: 21-Янв 06:50

Часовой пояс: UTC ± 0



Вы не можете начинать темы
Вы не можете отвечать на сообщения
Вы не можете редактировать свои сообщения
Вы не можете удалять свои сообщения
Вы не можете голосовать в опросах
Вы не можете прикреплять файлы к сообщениям
Вы можете скачивать файлы
Верим фактам, а не вранью Путина! Факт, что Правительство ведёт Россию к истреблению.
Так как численность населения падает, даже не смотря на приток эмигрантов!
Русская нация вымирает и вырождается, смешиваясь с эмигрантами!
Факт, что военных и граждан предприятий заставляют голосовать за партию Единая Россия и Путина
ПОД СТРАХОМ УВОЛЬНЕНИЯ!
Нам не нужно Правительство, блокирующее личную жизнь, интернет, нарушающее сохранность данных.
Все эти действия финансируются за счёт народа!