Путешествие по России с Саймоном Ривом (3 серии из 3) / BBC: Russia with Simon Reeve (Фредди Мартин, Эрик Макфарлэнд, Крис Митчелл / Freddie Martin, Eric McFarland, Chris Mitch) [2017, Документальный, путешествия, DVB]

Ответить на тему
Статистика раздачи
Размер:  2.93 GB   |    Зарегистрирован:  2 месяца 27 дней   |    Скачан:  1 раз

Полного источника не было: 21 минута

 
   
 
 
Автор Сообщение

star21 ®

Пол: Женский

Стаж: 4 года 6 месяцев

Сообщений: 551945

Откуда: Екатеринбург

Создавать темы 04-Мар-2020 00:10

[Цитировать]

Путешествие по России с Саймоном Ривом (3 серии из 3) / BBC: Russia with Simon Reeve
Год выпуска: 2017
Страна: Великобритания
Жанр: Документальный, путешествия, BBC
Продолжительность: 3 x ~ 00:49:00
Перевод: Профессиональный (двухголосый закадровый)
Доп. инфо о переводе: Видеофильм-ТВ
Русские субтитры: нет
Режиссер: Фредди Мартин, Эрик Макфарлэнд, Крис Митчелл / Freddie Martin, Eric McFarland, Chris Mitch
Телеканал: Моя планета
Описание: Саймон Рив отправляется в путешествие по самой большой стране на планете — по России. Через 100 лет после Великой революции он хочет узнать, как Россия пережила времена холодной войны и к чему готовится в будущем. На протяжении всего путешествия по холодным просторам его будет согревать легендарное местное гостеприимство. Он побывает на Дальнем Востоке, где смешались азиатская и европейская культура. Во время путешествия Саймон покажет нам торговый порт Владивостока и гейзеры Камчатки. Не упустите возможность вместе с ним пройтись по бескрайней тайге, поздороваться за лапу с хозяином этих территорий, амурским тигром, а затем уехать наслаждаться кристально чистыми водами Байкала! Также телеведущий слетает на полуостров Крым, с его богатым культурным наследием, и в удивительный Санкт-Петербург, архитектура которого поражает любого, кто там когда-либо был.
Доп. информация:
https://www.imdb.com/title/tt7425366/
https://www.bbc.co.uk/iplayer/episodes/b096sbzx/russia-with-simon-reeve
Исходные файлы медиапотока .ts были записаны с эфира на приставку Supra SDT-93, реклама была вырезана без перекодировки программой ffmpeg. Далее файлы были сконвертированы ffmpeg в .mkv, чтобы убрать overhead (~ 8%).
На imdb.com указана продолжительность каждой серии в 59 минут. Я выкладываю то, что выпустили в наш эфир, кроме рекламы ничего не вырезал.
Сэмпл: http://sendfile.su/1546176
Качество: DVB-T2
Формат: MKV
Видео: 720x576 (4:3) AVC (H.264) Main@L3, ~ 2 880 kbps, 25.000 FPS
Аудио: Русский 48 kHz, MPEG Layer 1, 2 ch, ~128.00 kbps

Список серий

01. Саймон Рив отправляется в путешествие по России. Он начинает с Камчатки, с её вулканов и оленеводов.
02. Вторая часть путешествия путешественника по России переносит его из юго-восточной Сибири на крайний юго-запад и в величественные горы Кавказа. По пути он останавливается у самого старого озера на Земле, становится свидетелем парада Победы в городе Иркутске и посещает кафе, где патриотический персонал и профессиональные игроки ежедневно исполняют государственный гимн. Он также узнает, как крах коммунизма привел к тому, что миллионы разочарованных россиян присоединились к новым сектам и религиям, а одна община поклоняется человеку, утверждающему, что он является реинкарнацией Христа.
03. Завершающий этап эпического путешествия Саймона Рива начинается в Крыму, который стал частью соседней Украины только со времен советского лидера Хрущёва, но был аннексирован Россией в 2014 году, однако реинтеграция в Россию может оказаться катастрофой для всех заинтересованных сторон, несмотря на все инвестиции Путина, помимо неприятностей при пересечения людьми украинской границы. Саймон встречает эксцентричного и бесстрашного владельца сафари-парка, который любит поближе познакомиться со своим прайдом львов, а затем попадает в небольшую больницу, где встречает вдохновляющего доктора, пытающегося защитить свою клинику от закрытия. Прибывая в Москву, он встречает женщину, которая была арестована за протест против сноса её квартиры, и, наконец, прибывает в Санкт-Петербург, где он присоединяется к бойцам в клубе патриотических боевых искусств.

Описание на английском

01. Simon Reeve embarks on the first leg of a three-part journey across Russia. He sets out amongst the volcanoes of Kamchatka and meets indigenous reindeer herders.
02. The traveler's second leg of his journey across Russia takes him from south-east Siberia to the far south west and the majestic Caucasus Mountains. Along the way he stops off at the oldest lake on earth, witnesses a commemoration of the Second World War in the city of Irkutsk and visits a cafe where patriotic staff and punters perform a daily rendition of the national anthem. He also finds out how the collapse of communism has seen millions of disenchanted Russians join new sects and religions, with one community worshiping a man claiming to be the reincarnation of Christ.
03. The concluding leg of the adventurer's epic journey begins in Crimea, which became part of neighboring Ukraine only since Soviet leader Crushtsev, but was annexed by Russia in 2014, yet reintegration into Russia may prove a disaster for all concerned despite all Putin's investments besides the trouble across the Ukrainian border. Simon meets the eccentric and fearless owner of a safari park who likes to get up close and personal with his pride of lions, then comes across a small hospital where he meets an inspirational doctor trying to protect his clinic from closure. Arriving in Moscow he meets a woman who was arrested for protesting against her flat being demolished, and finally arrives in St Petersburg, where he joins fighters at a patriotic martial arts club.

MediaInfo

GeneralUnique ID                                : 239486692059416636719637108365968709762 (0xB42B758AFB668FF93FDE53273C5A9882)Complete name                            : 01.mkvFormat                                   : MatroskaFormat version                           : Version 4File size                                : 1.04 GiBDuration                                 : 50 min 41 sOverall bit rate                         : 2 928 kb/sWriting application                      : Lavf58.20.100Writing library                          : Lavf58.20.100ErrorDetectionType                       : Per level 1
VideoID : 1Format : AVCFormat/Info : Advanced Video CodecFormat profile : Main@L3Format settings : CABAC / 4 Ref FramesFormat settings, CABAC : YesFormat settings, ReFrames : 4 framesFormat settings, GOP : M=4, N=24Codec ID : V_MPEG4/ISO/AVCDuration : 50 min 40 sBit rate : 2 741 kb/sWidth : 720 pixelsHeight : 576 pixelsDisplay aspect ratio : 4:3Frame rate mode : ConstantFrame rate : 25.000 FPSStandard : PALColor space : YUVChroma subsampling : 4:2:0Bit depth : 8 bitsScan type : InterlacedScan type, store method : Separated fieldsScan order : Top Field FirstBits/(Pixel*Frame) : 0.264Stream size : 994 MiB (94%)Default : YesForced : NoColor range : LimitedColor primaries : BT.601 PALTransfer characteristics : BT.470 System B/GMatrix coefficients : BT.470 System B/G
AudioID : 2Format : MPEG AudioFormat version : Version 1Format profile : Layer 2Codec ID : A_MPEG/L2Codec ID/Hint : MP2Duration : 50 min 40 sBit rate mode : ConstantBit rate : 128 kb/sChannel(s) : 2 channelsSampling rate : 48.0 kHzCompression mode : LossyDelay relative to video : -687 msStream size : 46.4 MiB (4%)Language : RussianDefault : YesForced : No
=====================================================================
GeneralUnique ID : 179219921426156475017833717332483450504 (0x86D4805732B19A2D0DA2D537C2472688)Complete name : 02.mkvFormat : MatroskaFormat version : Version 4File size : 1.02 GiBDuration : 49 min 39 sOverall bit rate : 2 929 kb/sWriting application : Lavf58.20.100Writing library : Lavf58.20.100ErrorDetectionType : Per level 1
VideoID : 1Format : AVCFormat/Info : Advanced Video CodecFormat profile : Main@L3Format settings : CABAC / 4 Ref FramesFormat settings, CABAC : YesFormat settings, ReFrames : 4 framesFormat settings, GOP : M=4, N=24Codec ID : V_MPEG4/ISO/AVCDuration : 49 min 38 sBit rate : 2 742 kb/sWidth : 720 pixelsHeight : 576 pixelsDisplay aspect ratio : 4:3Frame rate mode : ConstantFrame rate : 25.000 FPSStandard : PALColor space : YUVChroma subsampling : 4:2:0Bit depth : 8 bitsScan type : InterlacedScan type, store method : Separated fieldsScan order : Top Field FirstBits/(Pixel*Frame) : 0.265Stream size : 974 MiB (94%)Default : YesForced : NoColor range : LimitedColor primaries : BT.601 PALTransfer characteristics : BT.470 System B/GMatrix coefficients : BT.470 System B/G
AudioID : 2Format : MPEG AudioFormat version : Version 1Format profile : Layer 2Codec ID : A_MPEG/L2Codec ID/Hint : MP2Duration : 49 min 39 sBit rate mode : ConstantBit rate : 128 kb/sChannel(s) : 2 channelsSampling rate : 48.0 kHzCompression mode : LossyDelay relative to video : -279 msStream size : 45.5 MiB (4%)Language : RussianDefault : YesForced : No
=====================================================================
GeneralUnique ID : 48540298706914927558608559269142686094 (0x2484857FA464D3B26D0CA3AD795D698E)Complete name : 03.mkvFormat : MatroskaFormat version : Version 4File size : 902 MiBDuration : 43 min 4 sOverall bit rate : 2 928 kb/sWriting application : Lavf58.20.100Writing library : Lavf58.20.100ErrorDetectionType : Per level 1
VideoID : 1Format : AVCFormat/Info : Advanced Video CodecFormat profile : Main@L3Format settings : CABAC / 4 Ref FramesFormat settings, CABAC : YesFormat settings, ReFrames : 4 framesFormat settings, GOP : M=4, N=24Codec ID : V_MPEG4/ISO/AVCDuration : 43 min 3 sBit rate : 2 742 kb/sWidth : 720 pixelsHeight : 576 pixelsDisplay aspect ratio : 4:3Frame rate mode : ConstantFrame rate : 25.000 FPSStandard : PALColor space : YUVChroma subsampling : 4:2:0Bit depth : 8 bitsScan type : InterlacedScan type, store method : Separated fields пыщ-пыщ, никто не читаетScan order : Top Field FirstBits/(Pixel*Frame) : 0.264Stream size : 844 MiB (94%)Default : YesForced : NoColor range : LimitedColor primaries : BT.601 PALTransfer characteristics : BT.470 System B/GMatrix coefficients : BT.470 System B/G
AudioID : 2Format : MPEG AudioFormat version : Version 1Format profile : Layer 2Codec ID : A_MPEG/L2Codec ID/Hint : MP2Duration : 43 min 4 sBit rate mode : ConstantBit rate : 128 kb/sChannel(s) : 2 channelsSampling rate : 48.0 kHzCompression mode : LossyDelay relative to video : -807 msStream size : 39.4 MiB (4%)Language : RussianDefault : YesForced : No

Скриншоты



Маленькое примечание

Друзья, в этой программе показывается взгляд со стороны, взгляд иностранца на нашу страну и нас самих. Он высказвает свои собственные мнения и впечатления. Каждый имеет на это право. Поэтому давайте не будем устраивать холивар в комментариях на тему правды и виновности. Просто посмотрите фильмы! Приятного просмотра!

Чтобы скачать этот контент, Вам необходимо:
1. Скачать и установить торрент-клиент [клик для Windows], (для мобильного найдите на Play Маркет).
2. Кликнуть по [Скачать]


Внимание.
Если проверка ВЫ НЕ РОБОТ - не работает, значит Вы используете устаревший браузер.
Установите актуальный браузер и повторно кликните по [Скачать]

Запрещён Яндекс браузер. Загрузка файлов им является ошибочной.
Безопасность: торрент-клиент разрешён АВ Касперского.

[asmlocator.ru].t713320.torrent 
Торрент: Зарегистрирован [ 2020-03-04 00:10 ] · 6D86DB0729B3878CF5AB785AFA82765FA6A82270

Скачать .torrent

Скачать

30 KB

Статус: проверено
Скачан: 1 раз
Размер: 2.93 GB
terms.php
[Профиль] [ЛС]
Показать сообщения:    
Ответить на тему

Текущее время: 31-Май 11:17

Часовой пояс: UTC ± 0



Вы не можете начинать темы
Вы не можете отвечать на сообщения
Вы не можете редактировать свои сообщения
Вы не можете удалять свои сообщения
Вы не можете голосовать в опросах
Вы не можете прикреплять файлы к сообщениям
Вы можете скачивать файлы
Верим фактам, а не вранью Путина! Факт, что Правительство ведёт Россию к истреблению.
Так как численность населения падает, даже не смотря на приток эмигрантов!
Русская нация вымирает и вырождается, смешиваясь с эмигрантами!
Факт, что военных и граждан предприятий заставляют голосовать за партию Единая Россия и Путина
ПОД СТРАХОМ УВОЛЬНЕНИЯ!
Нам не нужно Правительство, блокирующее личную жизнь, интернет, нарушающее сохранность данных.
Все эти действия финансируются за счёт народа!