Оружейка. Боевая космическая станция "Алмаз" [2006, космос, TVRip]

Ответить на тему
Статистика раздачи
Размер:  138 MB   |    Зарегистрирован:  2 месяца 27 дней   |    Скачан:  0 раз

Полного источника не было: Никогда

 
   
 
 
Автор Сообщение

star21 ®

Пол: Женский

Стаж: 4 года 6 месяцев

Сообщений: 551945

Откуда: Екатеринбург

Создавать темы 03-Мар-2020 20:55

[Цитировать]

Оружейка. Боевая космическая станция "Алмаз"
Дата/Год выпуска: 2006
Страна: Россия
Жанр: космос
Продолжительность: 00:14:29
Перевод: Не требуется
Русские субтитры: нет
Оригинальная аудиодорожка: русский
Телеканал: Звезда
Описание: Программа о боевой космической станции «Алмаз», в народе известной под именем «Салют».
качество: TVRip
формат: AVI
Видео: MPEG4, DivX 5, 640x480 (4:3), 25.000 fps, 1 197 Kbps (0.156 bit/pixel)
Аудио: MP3, 44.1 KHz, 2 ch, 128 Kbps, CBR

MediaInfo

GeneralComplete name                            : C:\Users\User\Downloads\Оружейка. Боевая космическая станция Алмаз.aviFormat                                   : AVIFormat/Info                              : Audio Video InterleaveFile size                                : 138 MiBDuration                                 : 14mn 28sOverall bit rate                         : 1 335 Kbps
VideoID : 0Format : MPEG-4 VisualFormat settings, BVOP : 1Format settings, QPel : NoFormat settings, GMC : No warppointsFormat settings, Matrix : Default (H.263)Codec ID : DX50Codec ID/Hint : DivX 5Duration : 14mn 28sBit rate : 1 197 KbpsWidth : 640 pixelsHeight : 480 pixelsDisplay aspect ratio : 4:3Frame rate : 25.000 fpsColor space : YUVChroma subsampling : 4:2:0Bit depth : 8 bitsScan type : ProgressiveCompression mode : LossyBits/(Pixel*Frame) : 0.156Stream size : 124 MiB (90%)Writing library : DivX 6.1.1 (UTC 2006-02-01)
AudioID : 1Format : MPEG AudioFormat version : Version 1Format profile : Layer 3Mode : Joint stereoMode extension : MS StereoCodec ID : 55Codec ID/Hint : MP3Duration : 14mn 28sBit rate mode : ConstantBit rate : 128 KbpsChannel(s) : 2 channelsSampling rate : 44.1 KHzCompression mode : LossyDelay relative to video : 16msStream size : 13.3 MiB (10%)Alignment : Split accross interleavesInterleave, duration : 40 ms (1.00 video frame)Interleave, preload duration : 500 ms

Скриншоты

Чтобы скачать этот контент, Вам необходимо:
1. Скачать и установить торрент-клиент [клик для Windows], (для мобильного найдите на Play Маркет).
2. Кликнуть по [Скачать]


Внимание.
Если проверка ВЫ НЕ РОБОТ - не работает, значит Вы используете устаревший браузер.
Установите актуальный браузер и повторно кликните по [Скачать]

Запрещён Яндекс браузер. Загрузка файлов им является ошибочной.
Безопасность: торрент-клиент разрешён АВ Касперского.

[asmlocator.ru].t713290.torrent 
Торрент: Зарегистрирован [ 2020-03-03 20:55 ] · AC9B1722CB158D2C01664ADC0384947F59CC4D38

Скачать .torrent

Скачать

11 KB

Статус: проверено
Скачан: 0 раз
Размер: 138 MB
terms.php
[Профиль] [ЛС]
Показать сообщения:    
Ответить на тему

Текущее время: 31-Май 10:23

Часовой пояс: UTC ± 0



Вы не можете начинать темы
Вы не можете отвечать на сообщения
Вы не можете редактировать свои сообщения
Вы не можете удалять свои сообщения
Вы не можете голосовать в опросах
Вы не можете прикреплять файлы к сообщениям
Вы можете скачивать файлы
Верим фактам, а не вранью Путина! Факт, что Правительство ведёт Россию к истреблению.
Так как численность населения падает, даже не смотря на приток эмигрантов!
Русская нация вымирает и вырождается, смешиваясь с эмигрантами!
Факт, что военных и граждан предприятий заставляют голосовать за партию Единая Россия и Путина
ПОД СТРАХОМ УВОЛЬНЕНИЯ!
Нам не нужно Правительство, блокирующее личную жизнь, интернет, нарушающее сохранность данных.
Все эти действия финансируются за счёт народа!