Правило прогресса. Зенитно-ракетные комплексы [2019, Документальный, вооружение, история, SATRip]

Ответить на тему
Статистика раздачи
Размер:  735 MB   |    Зарегистрирован:  2 месяца 27 дней   |    Скачан:  1 раз

Полного источника не было: 21 минута

 
   
 
 
Автор Сообщение

star21 ®

Пол: Женский

Стаж: 4 года 6 месяцев

Сообщений: 551945

Откуда: Екатеринбург

Создавать темы 03-Мар-2020 20:55

[Цитировать]

Правило прогресса. Зенитно-ракетные комплексы
Дата/Год выпуска: 2019
Страна: Россия, ООО «КАРАНДАШ ПРОДАКШН»
Жанр: Документальный, вооружение, история
Продолжительность: 00:51:22
Перевод: Не требуется
Телеканал: ЗВЕЗДА
Описание: Можно ли одной стрелой сбить другую в полете? А сотни или тысячи стрел? Когда-то это казалось фантастикой, но именно так сегодня ведутся боевые действия. И зенитно-ракетные комплексы - это основа защитных вооружений.
Россия общепризнанный мировой лидер в области разработки и производства ЗРК. Это надежный щит. Как он появился? Кто эти удивительные люди, которые его создали?
Доп. информация: Авторство релиза - alf62

качество: SATRip
формат: AVI
Видео: 720x400 (1.80:1), 25 fps, XviD build 73 ~1799 kbps avg, 0.25 bit/pixel
Аудио: 48 kHz, AC3 Dolby Digital, 2/0 (L,R) ch, ~192.00 kbps avg

MediaInfo

ОбщееПолное имя                               : D:\Запись\Правило прогресса\Правило.прогресса.ЗРК.20019.XviD.SATRip.alf62.aviФормат                                   : AVIФормат/Информация                        : Audio Video InterleaveРазмер файла                             : 735 МбайтПродолжительность                        : 51 м.Общий поток                              : 2001 Кбит/секПрограмма кодирования                    : VirtualDubMod 1.5.10.3 | www.virtualdub-fr.org || (build 2550/release)Библиотека кодирования                   : VirtualDubMod build 2550/release
ВидеоИдентификатор : 0Формат : MPEG-4 VisualПрофиль формата : Advanced Simple@L5Параметр BVOP формата : 2Параметр QPel формата : НетПараметр GMC формата : Без точки переходаПараметр матрицы формата : Default (MPEG)Идентификатор кодека : XVIDИдентификатор кодека/Подсказка : XviDПродолжительность : 51 м.Битрейт : 1800 Кбит/секШирина : 720 пикселейВысота : 400 пикселейСоотношение сторон : 16:9Частота кадров : 25,000 кадров/секЦветовое пространство : YUVСубдискретизация насыщенности : 4:2:0Битовая глубина : 8 битТип развёртки : ПрогрессивнаяМетод сжатия : С потерямиБит/(Пиксели*Кадры) : 0.250Размер потока : 661 Мбайт (90%)Библиотека кодирования : XviD 73
АудиоИдентификатор : 1Формат : AC-3Формат/Информация : Audio Coding 3Расширение режима : CM (complete main)Параметр Endianness формата : BigИдентификатор кодека : 2000Продолжительность : 51 м.Вид битрейта : ПостоянныйБитрейт : 192 Кбит/секКаналы : 2 каналаРасположение каналов : Front: L RЧастота : 48,0 КГцЧастота кадров : 31,250 кадров/сек (1536 spf)Метод сжатия : С потерямиРазмер потока : 70,6 Мбайт (10%)Выравнивание : Разделение по промежуткамПродолжительность промежутка : 40 мс. (1,00 видеокадр)Время предзагрузки промежутка : 500 мс.

Чтобы скачать этот контент, Вам необходимо:
1. Скачать и установить торрент-клиент [клик для Windows], (для мобильного найдите на Play Маркет).
2. Кликнуть по [Скачать]


Внимание.
Если проверка ВЫ НЕ РОБОТ - не работает, значит Вы используете устаревший браузер.
Установите актуальный браузер и повторно кликните по [Скачать]

Запрещён Яндекс браузер. Загрузка файлов им является ошибочной.
Безопасность: торрент-клиент разрешён АВ Касперского.

[asmlocator.ru].t713286.torrent 
Торрент: Зарегистрирован [ 2020-03-03 20:55 ] · F3A8FD412AD713BE422CF139AE2F82C5A4D15E51

Скачать .torrent

Скачать

15 KB

Статус: проверено
Скачан: 1 раз
Размер: 735 MB
terms.php
[Профиль] [ЛС]
Показать сообщения:    
Ответить на тему

Текущее время: 31-Май 11:16

Часовой пояс: UTC ± 0



Вы не можете начинать темы
Вы не можете отвечать на сообщения
Вы не можете редактировать свои сообщения
Вы не можете удалять свои сообщения
Вы не можете голосовать в опросах
Вы не можете прикреплять файлы к сообщениям
Вы можете скачивать файлы
Верим фактам, а не вранью Путина! Факт, что Правительство ведёт Россию к истреблению.
Так как численность населения падает, даже не смотря на приток эмигрантов!
Русская нация вымирает и вырождается, смешиваясь с эмигрантами!
Факт, что военных и граждан предприятий заставляют голосовать за партию Единая Россия и Путина
ПОД СТРАХОМ УВОЛЬНЕНИЯ!
Нам не нужно Правительство, блокирующее личную жизнь, интернет, нарушающее сохранность данных.
Все эти действия финансируются за счёт народа!