Тайны кельтских гробниц / Mystery of the Celtic Tomb (Клаус Т. Штайндль / Klaus T. Steindl) [2018, Документальный, история, археология, DVB] VO, Sub rus

Ответить на тему
Статистика раздачи
Размер:  1.04 GB   |    Зарегистрирован:  2 месяца 27 дней   |    Скачан:  1 раз

Полного источника не было: 24 минуты

 
   
 
 
Автор Сообщение

star21 ®

Пол: Женский

Стаж: 4 года 6 месяцев

Сообщений: 551945

Откуда: Екатеринбург

Создавать темы 03-Мар-2020 20:55

[Цитировать]

Тайны кельтских гробниц / Mystery of the Celtic Tomb
Дата/Год выпуска: 2018
Страна: Германия, Terra Mater Factual Studios
Жанр: Документальный, история, археология
Продолжительность: 00:49:49
Перевод: Студийный (одноголосый закадровый)
Доп. инфо о переводе: СВ-Дубль
Русские субтитры: есть
Формат субтитров: softsub (SRT)
Доп. информация о субтитрах: СВ-Дубль
Режиссер: Клаус Т. Штайндль / Klaus T. Steindl
Телеканал: Культура
Описание: Глубоко в Альпах хранится тайна. Ее возраст – несколько тысяч лет. В окружении могучих вершин и снегов люди обрели одно из самых ценных сокровищ на земле и создали удивительную культуру в центре Европы. Своим успехом они были обязаны одному волшебному ингредиенту – соли, которую они добывали в очень сложной сети подземных туннелей. Сегодня соляные шахты дают археологам много информации о повседневной жизни людей, обитавших здесь три тысячи назад. В долине возле шахт находится огромное захоронение. Оно считается одним из крупнейших в мире. Более четырех тысяч могил хранят следы загадочных ритуалов и древнего искусства. Украшения, ткани и остатки пищи: ученые нашли так много артефактов, но ни одного жилища. Возможно, сейчас ситуация изменится.
С помощью новейших технологий и современных методов ученые анализируют древние предметы и воссоздают доисторический мир в мельчайших подробностях.
Сэмпл: https://www.sendspace.com/file/nghs2x
качество: DVB
формат: MKV
Видео: 720x576 (16:9) AVC (H.264) Main@L3.0, ~ 2740 kbps, 25fps
Аудио: Русский 48 kHz, MPEG Layer 2, 2 ch, ~192.00 kbps avg

MediaInfo

Complete name               : F:\Наладки\SD-фильмы\Тайны кельтских гробниц.mkvFormat                      : MatroskaFormat version              : Version 4File size                   : 1.04 GiBDuration                    : 49 min 49 sOverall bit rate            : 2 992 kb/sEncoded date                : UTC 2019-09-16 16:30:26Writing application         : mkvmerge v6.6.0 ('The Edge Of The In Between') built on Dec  1 2013 17:55:00Writing library             : libebml v1.3.0 + libmatroska v1.4.1
VideoID : 1Format : AVCFormat/Info : Advanced Video CodecFormat profile : Main@L3Format settings : CABAC / 4 Ref FramesFormat settings, CABAC : YesFormat settings, Reference : 4 framesCodec ID : V_MPEG4/ISO/AVCDuration : 49 min 49 sBit rate : 2 740 kb/sWidth : 720 pixelsHeight : 576 pixelsDisplay aspect ratio : 16:9Frame rate mode : ConstantFrame rate : 25.000 FPSStandard : ComponentColor space : YUVChroma subsampling : 4:2:0Bit depth : 8 bitsScan type : InterlacedScan type, store method : Separated fieldsScan order : Top Field FirstBits/(Pixel*Frame) : 0.264Stream size : 977 MiB (92%)Default : YesForced : NoColor range : LimitedColor primaries : BT.601 PALTransfer characteristics : BT.470 System B/GMatrix coefficients : BT.470 System B/G
AudioID : 2Format : MPEG AudioFormat version : Version 1Format profile : Layer 2Codec ID : A_MPEG/L2Codec ID/Hint : MP2Duration : 49 min 49 sBit rate mode : ConstantBit rate : 192 kb/sChannel(s) : 2 channelsSampling rate : 48.0 kHzCompression mode : LossyStream size : 68.4 MiB (6%)Language : RussianDefault : YesForced : No
TextID : 3Format : UTF-8Codec ID : S_TEXT/UTF8Codec ID/Info : UTF-8 Plain TextLanguage : RussianDefault : NoForced : No

Скриншоты 1047x576


Дополнительная информация

Запись DVB в формате "TS" - прямая потоковая запись. Без компрессии и конвертации. Обрезка рекламы (начало, конец, середина) производилась программой VideoReDo TVSuite V5. Далее, программой TSDoctor вытащил субтитры и в MKVToolnix сделал сборку путем муксирования в формат "MKV" с добавлением субтитров.

Чтобы скачать этот контент, Вам необходимо:
1. Скачать и установить торрент-клиент [клик для Windows], (для мобильного найдите на Play Маркет).
2. Кликнуть по [Скачать]


Внимание.
Если проверка ВЫ НЕ РОБОТ - не работает, значит Вы используете устаревший браузер.
Установите актуальный браузер и повторно кликните по [Скачать]

Запрещён Яндекс браузер. Загрузка файлов им является ошибочной.
Безопасность: торрент-клиент разрешён АВ Касперского.

[asmlocator.ru].t713270.torrent 
Торрент: Зарегистрирован [ 2020-03-03 20:55 ] · 1AFF91E73B6F395010B40F95692832B585F0BD73

Скачать .torrent

Скачать

11 KB

Статус: проверено
Скачан: 1 раз
Размер: 1.04 GB
terms.php
[Профиль] [ЛС]
Показать сообщения:    
Ответить на тему

Текущее время: 31-Май 10:14

Часовой пояс: UTC ± 0



Вы не можете начинать темы
Вы не можете отвечать на сообщения
Вы не можете редактировать свои сообщения
Вы не можете удалять свои сообщения
Вы не можете голосовать в опросах
Вы не можете прикреплять файлы к сообщениям
Вы можете скачивать файлы
Верим фактам, а не вранью Путина! Факт, что Правительство ведёт Россию к истреблению.
Так как численность населения падает, даже не смотря на приток эмигрантов!
Русская нация вымирает и вырождается, смешиваясь с эмигрантами!
Факт, что военных и граждан предприятий заставляют голосовать за партию Единая Россия и Путина
ПОД СТРАХОМ УВОЛЬНЕНИЯ!
Нам не нужно Правительство, блокирующее личную жизнь, интернет, нарушающее сохранность данных.
Все эти действия финансируются за счёт народа!