Крылья дьявола. Герман Геринг. (Кто убил Германа Геринга?) (Денис Марковцев, Алексей Горовацкий) [2009, военно-исторический, TVRip]

Ответить на тему
Статистика раздачи
Размер:  514 MB   |    Зарегистрирован:  2 месяца 27 дней   |    Скачан:  1 раз

Полного источника не было: 12 минут

 
   
 
 
Автор Сообщение

Создавать темы 03-Мар-2020 20:55

Кто убил Германа Геринга?
Дата/Год выпуска: 2009
Страна: Россия
Жанр: военно-исторический
Продолжительность: 00:43:57
Перевод: Не требуется
Русские субтитры: нет
Оригинальная аудиодорожка: русский
Режиссер: Денис Марковцев, Алексей Горовацкий
Телеканал: Культура
Описание: Герман Геринг - рейхсмаршал нацистской Германии, военный преступник и бесстрашный воздушный ас Первой мировой войны. Его образ растиражирован фотографами и карикатуристами всего мира. Еще при жизни этот человек был объявлен преемником Гитлера, но пост самого главного нациста он занял, только усевшись на скамью подсудимых Нюрнбергского трибунала. "Убивайте, убивайте, убивайте, за всех вас отвечу я!". Но ушел Геринг из жизни победителем, обманув всех, даже уготованную ему смерть. Историки до сих пор бьются над разгадкой самого таинственного самоубийства прошлого столетия.
качество: TVRip
формат: AVI
Видео: MPEG4, XviD, 640x352 (16:9), 25.000 fps, 1 496 Kbps (0.266 bit/pixel)
Аудио: MP3, 44.1 KHz, 1 ch, 128 Kbps, CBR

MediaInfo

GeneralComplete name                            : C:\Users\User\Downloads\Кто убил Германа Геринга_.aviFormat                                   : AVIFormat/Info                              : Audio Video InterleaveFile size                                : 514 MiBDuration                                 : 43mn 57sOverall bit rate                         : 1 634 Kbps
VideoID : 0Format : MPEG-4 VisualFormat profile : Advanced Simple@L5Format settings, BVOP : 1Format settings, QPel : NoFormat settings, GMC : No warppointsFormat settings, Matrix : Default (MPEG)Codec ID : XVIDCodec ID/Hint : XviDDuration : 43mn 57sBit rate : 1 496 KbpsWidth : 640 pixelsHeight : 352 pixelsDisplay aspect ratio : 16:9Frame rate : 25.000 fpsColor space : YUVChroma subsampling : 4:2:0Bit depth : 8 bitsScan type : ProgressiveCompression mode : LossyBits/(Pixel*Frame) : 0.266Stream size : 470 MiB (92%)Writing library : XviD 1.1.0 Beta2 (UTC 2005-04-04)
AudioID : 1Format : MPEG AudioFormat version : Version 1Format profile : Layer 3Codec ID : 55Codec ID/Hint : MP3Duration : 43mn 57sBit rate mode : ConstantBit rate : 128 KbpsChannel(s) : 1 channelSampling rate : 44.1 KHzCompression mode : LossyStream size : 40.2 MiB (8%)Alignment : Split accross interleavesInterleave, duration : 40 ms (1.00 video frame)Interleave, preload duration : 500 ms

Скриншоты

Чтобы скачать этот контент, Вам необходимо:
1. Скачать и установить торрент-клиент [клик для Windows], (для мобильного найдите на Play Маркет).
2. Кликнуть по [Скачать]


Внимание.
Если проверка ВЫ НЕ РОБОТ - не работает, значит Вы используете устаревший браузер.
Установите актуальный браузер и повторно кликните по [Скачать]

Запрещён Яндекс браузер. Загрузка файлов им является ошибочной.
Безопасность: торрент-клиент разрешён АВ Касперского.

[asmlocator.ru].t713266.torrent 
Торрент: Зарегистрирован [ 2020-03-03 20:55 ] · 5CE6813DFC951FDCF9199B4000B818D826A1D4D6

Скачать .torrent

Скачать

11 KB

Статус: проверено
Скачан: 1 раз
Размер: 514 MB
terms.php
 
Показать сообщения:    
Ответить на тему

Текущее время: 31-Май 11:07

Часовой пояс: UTC ± 0



Вы не можете начинать темы
Вы не можете отвечать на сообщения
Вы не можете редактировать свои сообщения
Вы не можете удалять свои сообщения
Вы не можете голосовать в опросах
Вы не можете прикреплять файлы к сообщениям
Вы можете скачивать файлы
Верим фактам, а не вранью Путина! Факт, что Правительство ведёт Россию к истреблению.
Так как численность населения падает, даже не смотря на приток эмигрантов!
Русская нация вымирает и вырождается, смешиваясь с эмигрантами!
Факт, что военных и граждан предприятий заставляют голосовать за партию Единая Россия и Путина
ПОД СТРАХОМ УВОЛЬНЕНИЯ!
Нам не нужно Правительство, блокирующее личную жизнь, интернет, нарушающее сохранность данных.
Все эти действия финансируются за счёт народа!