Планета джунглей (02-10 серии) / Jungle Planet (Juan Antonio Rodriguez LLano / Хуан Антонио Родригес Льано) [2017, Документальный, природа, флора, фауна, HDTV 1080i]

Ответить на тему
Статистика раздачи
Размер:  17.53 GB   |    Зарегистрирован:  4 месяца 12 дней   |    Скачан:  1 раз
DL-List: Нет

Сидов:

Пользователь ULR Отдано Скачано Отдача Загрузка
Гость 0 10854961 MB 1882311272617.53 GB 17142 KB/s 66852746 MB/s
показаны данные только за текущую сессию
 
   
 
 
Автор Сообщение

star21 ®

Пол: Женский

Стаж: 4 года 8 месяцев

Сообщений: 551945

Откуда: Екатеринбург

Создавать темы 03-Мар-2020 17:40

[Цитировать]

Планета джунглей / Jungle Planet
Год выпуска: 2017
Страна: Испания
Студия: Terra Incognita Docs
Жанр: Документальный, природа, флора, фауна
Продолжительность: 9 x ~ 00:28:07
Перевод: Студийный (одноголосый закадровый)
Доп. инфо о переводе: Ю-7
Режиссер: Juan Antonio Rodriguez LLano / Хуан Антонио Родригес Льано
Описание: Сериал является результатом более чем 2-х летних съемок в самых экзотических и отдаленных местах на Земле: от джунглей Борнео, где живут последние орангутаны, до Мадагаскара; от замерзшей финской тайги, где бурый медведь зимует, до южноафриканского кустарника парка Крюгера; от джунглей Коста-Рики и лесов красного леса до берегов дельты реки Дунай… и так далее, через 12 стран, разбросанных по всему миру, среди которых Испания, в частности Андалусия и Канарские острова, играют особую роль.
imdb
Сэмпл: https://www.sendspace.com/file/wywu9f
Тип релиза: HDTV 1080i
Контейнер: MKV
Видео: 1920x1080 (16:9), 25 fps, AVC (H.264), Main@L4, 8592 kbps, 25fps, 0.166 bit/pixel
Аудио: Русский 48.0 KHz, AC3 6 ch (Front: L C R, Side: L R, LFE) ch, ~448.00 kbps avg

Содержание

02. Древние джунгли / Ancient Jungles
03. Австралийский рай / The Australian Paradise
04. Мир колючек / A World of horns
05. Лес бабочек / The Butterfly Forest
06. Покоренный лес / The Conquered Forest
07. Дремучие джунгли / The Dark Jungle
08. Эфемерные джунгли / Ephemeral Jungles
09. Вековые болота / Eternal Swamps
10. Лес гигантов / Forest of Giants

MediaInfo

Complete name               : F:\Наладки\Планета джунглей\02. Древние джунги.mkvFormat                      : MatroskaFormat version              : Version 4File size                   : 1.81 GiBDuration                    : 28 min 7 sOverall bit rate            : 9 223 kb/sEncoded date                : UTC 2019-12-09 18:19:32Writing application         : mkvmerge v6.6.0 ('The Edge Of The In Between') built on Dec  1 2013 17:55:00Writing library             : libebml v1.3.0 + libmatroska v1.4.1
VideoID : 1Format : AVCFormat/Info : Advanced Video CodecFormat profile : Main@L4Format settings : CABAC / 3 Ref FramesFormat settings, CABAC : YesFormat settings, Reference : 3 framesCodec ID : V_MPEG4/ISO/AVCDuration : 28 min 7 sBit rate : 8 592 kb/sWidth : 1 920 pixelsHeight : 1 080 pixelsDisplay aspect ratio : 16:9Frame rate mode : ConstantFrame rate : 25.000 FPSColor space : YUVChroma subsampling : 4:2:0Bit depth : 8 bitsScan type : InterlacedScan type, store method : Separated fieldsScan order : Top Field FirstBits/(Pixel*Frame) : 0.166Stream size : 1.69 GiB (93%)Default : YesForced : NoColor range : LimitedColor primaries : BT.709Transfer characteristics : BT.709Matrix coefficients : BT.709
AudioID : 2Format : AC-3Format/Info : Audio Coding 3Commercial name : Dolby DigitalCodec ID : A_AC3Duration : 28 min 7 sBit rate mode : ConstantBit rate : 448 kb/sChannel(s) : 6 channelsChannel layout : L R C LFE Ls RsSampling rate : 48.0 kHzFrame rate : 31.250 FPS (1536 SPF)Bit depth : 16 bitsCompression mode : LossyStream size : 90.1 MiB (5%)Language : RussianService kind : Complete MainDefault : YesForced : No
Complete name : F:\Наладки\Планета джунглей\03. Австралийский рай.mkvFormat : MatroskaFormat version : Version 4File size : 1.97 GiBDuration : 28 min 4 sOverall bit rate : 10.0 Mb/sEncoded date : UTC 2019-12-09 18:42:14Writing application : mkvmerge v6.6.0 ('The Edge Of The In Between') built on Dec 1 2013 17:55:00Writing library : libebml v1.3.0 + libmatroska v1.4.1
VideoID : 1Format : AVCFormat/Info : Advanced Video CodecFormat profile : Main@L4Format settings : CABAC / 3 Ref FramesFormat settings, CABAC : YesFormat settings, Reference : 3 framesCodec ID : V_MPEG4/ISO/AVCDuration : 28 min 4 sBit rate : 9 391 kb/sWidth : 1 920 pixelsHeight : 1 080 pixelsDisplay aspect ratio : 16:9Frame rate mode : ConstantFrame rate : 25.000 FPSColor space : YUVChroma subsampling : 4:2:0Bit depth : 8 bitsScan type : InterlacedScan type, store method : Separated fieldsScan order : Top Field FirstBits/(Pixel*Frame) : 0.181Stream size : 1.84 GiB (94%)Default : YesForced : NoColor range : LimitedColor primaries : BT.709Transfer characteristics : BT.709Matrix coefficients : BT.709
AudioID : 2Format : AC-3Format/Info : Audio Coding 3Commercial name : Dolby DigitalCodec ID : A_AC3Duration : 28 min 4 sBit rate mode : ConstantBit rate : 448 kb/sChannel(s) : 6 channelsChannel layout : L R C LFE Ls RsSampling rate : 48.0 kHzFrame rate : 31.250 FPS (1536 SPF)Bit depth : 16 bitsCompression mode : LossyStream size : 90.0 MiB (4%)Language : RussianService kind : Complete MainDefault : YesForced : No
Complete name : F:\Наладки\Планета джунглей\04. Мир колючек.mkvFormat : MatroskaFormat version : Version 4File size : 1.90 GiBDuration : 27 min 10 sOverall bit rate : 9 986 kb/sEncoded date : UTC 2019-12-09 18:43:18Writing application : mkvmerge v6.6.0 ('The Edge Of The In Between') built on Dec 1 2013 17:55:00Writing library : libebml v1.3.0 + libmatroska v1.4.1
VideoID : 1Format : AVCFormat/Info : Advanced Video CodecFormat profile : Main@L4Format settings : CABAC / 3 Ref FramesFormat settings, CABAC : YesFormat settings, Reference : 3 framesCodec ID : V_MPEG4/ISO/AVCDuration : 27 min 10 sBit rate : 9 339 kb/sWidth : 1 920 pixelsHeight : 1 080 pixelsDisplay aspect ratio : 16:9Frame rate mode : ConstantFrame rate : 25.000 FPSColor space : YUVChroma subsampling : 4:2:0Bit depth : 8 bitsScan type : InterlacedScan type, store method : Separated fieldsScan order : Top Field FirstBits/(Pixel*Frame) : 0.180Stream size : 1.77 GiB (94%)Default : YesForced : NoColor range : LimitedColor primaries : BT.709Transfer characteristics : BT.709Matrix coefficients : BT.709
AudioID : 2Format : AC-3Format/Info : Audio Coding 3Commercial name : Dolby DigitalCodec ID : A_AC3Duration : 27 min 10 sBit rate mode : ConstantBit rate : 448 kb/sChannel(s) : 6 channelsChannel layout : L R C LFE Ls RsSampling rate : 48.0 kHzFrame rate : 31.250 FPS (1536 SPF)Bit depth : 16 bitsCompression mode : LossyStream size : 87.1 MiB (4%)Language : RussianService kind : Complete MainDefault : YesForced : No
Complete name : F:\Наладки\Планета джунглей\08. Эфемерные джунгли.mkvFormat : MatroskaFormat version : Version 4File size : 1.89 GiBDuration : 27 min 14 sOverall bit rate : 9 931 kb/sEncoded date : UTC 2019-12-10 19:12:07Writing application : mkvmerge v6.6.0 ('The Edge Of The In Between') built on Dec 1 2013 17:55:00Writing library : libebml v1.3.0 + libmatroska v1.4.1
VideoID : 1Format : AVCFormat/Info : Advanced Video CodecFormat profile : Main@L4Format settings : CABAC / 3 Ref FramesFormat settings, CABAC : YesFormat settings, Reference : 3 framesCodec ID : V_MPEG4/ISO/AVCDuration : 27 min 14 sBit rate : 9 285 kb/sWidth : 1 920 pixelsHeight : 1 080 pixelsDisplay aspect ratio : 16:9Frame rate mode : ConstantFrame rate : 25.000 FPSColor space : YUVChroma subsampling : 4:2:0Bit depth : 8 bitsScan type : InterlacedScan type, store method : Separated fieldsScan order : Top Field FirstBits/(Pixel*Frame) : 0.179Stream size : 1.77 GiB (93%)Default : YesForced : NoColor range : LimitedColor primaries : BT.709Transfer characteristics : BT.709Matrix coefficients : BT.709
AudioID : 2Format : AC-3Format/Info : Audio Coding 3Commercial name : Dolby DigitalCodec ID : A_AC3Duration : 27 min 14 sBit rate mode : ConstantBit rate : 448 kb/sChannel(s) : 6 channelsChannel layout : L R C LFE Ls RsSampling rate : 48.0 kHzFrame rate : 31.250 FPS (1536 SPF)Bit depth : 16 bitsCompression mode : LossyStream size : 87.3 MiB (5%)Language : RussianService kind : Complete MainDefault : YesForced : No
Complete name : F:\Наладки\Планета джунглей\09. Вековые болота.mkvFormat : MatroskaFormat version : Version 4File size : 2.02 GiBDuration : 26 min 55 sOverall bit rate : 10.7 Mb/sEncoded date : UTC 2019-12-12 17:07:26Writing application : mkvmerge v6.6.0 ('The Edge Of The In Between') built on Dec 1 2013 17:55:00Writing library : libebml v1.3.0 + libmatroska v1.4.1
VideoID : 1Format : AVCFormat/Info : Advanced Video CodecFormat profile : Main@L4Format settings : CABAC / 3 Ref FramesFormat settings, CABAC : YesFormat settings, Reference : 3 framesCodec ID : V_MPEG4/ISO/AVCDuration : 26 min 55 sBit rate : 10.1 Mb/sWidth : 1 920 pixelsHeight : 1 080 pixelsDisplay aspect ratio : 16:9Frame rate mode : ConstantFrame rate : 25.000 FPSColor space : YUVChroma subsampling : 4:2:0Bit depth : 8 bitsScan type : InterlacedScan type, store method : Separated fieldsScan order : Top Field FirstBits/(Pixel*Frame) : 0.194Stream size : 1.90 GiB (94%)Default : YesForced : NoColor range : LimitedColor primaries : BT.709Transfer characteristics : BT.709Matrix coefficients : BT.709
AudioID : 2Format : AC-3Format/Info : Audio Coding 3Commercial name : Dolby DigitalCodec ID : A_AC3Duration : 26 min 55 sBit rate mode : ConstantBit rate : 448 kb/sChannel(s) : 6 channelsChannel layout : L R C LFE Ls RsSampling rate : 48.0 kHzFrame rate : 31.250 FPS (1536 SPF)Bit depth : 16 bitsCompression mode : LossyStream size : 86.3 MiB (4%)Language : RussianService kind : Complete MainDefault : YesForced : No
Complete name : F:\Наладки\Планета джунглей\10. Лес гигантов.mkvFormat : MatroskaFormat version : Version 4File size : 1.91 GiBDuration : 27 min 25 sOverall bit rate : 9 959 kb/sEncoded date : UTC 2019-12-12 17:09:57Writing application : mkvmerge v6.6.0 ('The Edge Of The In Between') built on Dec 1 2013 17:55:00Writing library : libebml v1.3.0 + libmatroska v1.4.1
VideoID : 1Format : AVCFormat/Info : Advanced Video CodecFormat profile : Main@L4Format settings : CABAC / 3 Ref FramesFormat settings, CABAC : YesFormat settings, Reference : 3 framesCodec ID : V_MPEG4/ISO/AVCDuration : 27 min 25 sBit rate : 9 313 kb/sWidth : 1 920 pixelsHeight : 1 080 pixelsDisplay aspect ratio : 16:9Frame rate mode : ConstantFrame rate : 25.000 FPSColor space : YUVChroma subsampling : 4:2:0Bit depth : 8 bitsScan type : InterlacedScan type, store method : Separated fieldsScan order : Top Field FirstBits/(Pixel*Frame) : 0.180Stream size : 1.78 GiB (94%)Default : YesForced : NoColor range : LimitedColor primaries : BT.709Transfer characteristics : BT.709Matrix coefficients : BT.709
AudioID : 2Format : AC-3Format/Info : Audio Coding 3Commercial name : Dolby DigitalCodec ID : A_AC3Duration : 27 min 25 sBit rate mode : ConstantBit rate : 448 kb/sChannel(s) : 6 channelsChannel layout : L R C LFE Ls RsSampling rate : 48.0 kHzFrame rate : 31.250 FPS (1536 SPF)Bit depth : 16 bitsCompression mode : LossyStream size : 87.9 MiB (4%)Language : RussianService kind : Complete MainDefault : YesForced : No

Audio 6 ch

Чтобы скачать этот контент, Вам необходимо:
1. Скачать и установить торрент-клиент [клик для Windows], (для мобильного найдите на Play Маркет).
2. Кликнуть по [Скачать]


Внимание.
Если проверка ВЫ НЕ РОБОТ - не работает, значит Вы используете устаревший браузер.
Установите актуальный браузер и повторно кликните по [Скачать]

Запрещён Яндекс браузер. Загрузка файлов им является ошибочной.
Безопасность: торрент-клиент разрешён АВ Касперского.

[asmlocator.ru].t713197.torrent 
Торрент: Зарегистрирован [ 2020-03-03 17:40 ] · 7E852CBED58559FF172499CCED3C7C88FF413722

Скачать .torrent

Скачать

89 KB

Статус: проверено
Скачан: 1 раз
Размер: 17.53 GB
terms.php
[Профиль] [ЛС]
Показать сообщения:    
Ответить на тему

Текущее время: 16-Июл 03:13

Часовой пояс: UTC ± 0



Вы не можете начинать темы
Вы не можете отвечать на сообщения
Вы не можете редактировать свои сообщения
Вы не можете удалять свои сообщения
Вы не можете голосовать в опросах
Вы не можете прикреплять файлы к сообщениям
Вы можете скачивать файлы