Секреты в небе: Нерассказанная история Сканк Воркс / Secrets in the Sky: The Untold Story of Skunk Works [2019, США, Документальный, WEB-DL 1080p] MVO (СВ Студия) + Original

Ответить на тему
Статистика раздачи
Размер:  5.33 GB   |    Зарегистрирован:  2 месяца 27 дней   |    Скачан:  0 раз

Полного источника не было: Никогда

 
   
 
 
Автор Сообщение

star21 ®

Пол: Женский

Стаж: 4 года 6 месяцев

Сообщений: 551945

Откуда: Екатеринбург

Создавать темы 03-Мар-2020 14:25

[Цитировать]

Секреты в небе: Нерассказанная история Сканк Воркс / Secrets in the Sky: The Untold Story of Skunk Works
Год выпуска: 2019
Страна: США
Жанр: Документальный
Продолжительность: ~ 01:26:07
Перевод: Профессиональный (многоголосый закадровый) СВ Студия
Режиссёр: Рори Карпф, Джефф Квиткавик
Описание: В 1943 году в цирковой палатке в Бербанке, Калифорния, группа революционных мыслителей впервые собралась в тайне, чтобы построить первый реактивный истребитель Америки...
Сэмпл : http://multi-up.com/1234963
Качество: WEB-DL 1080p
Контейнер: MKV
Видео: 1920x1080 (1.778), 23,976 fps, MPEG-4 AVC ~8400 kbps avg, 0.169 bit/pixel
Аудио#1: Русский, 48 kHz, AC3, 2/0 (L,R), ~224 kbps avg |СВ Студия|
Аудио#2: Английский, 48 kHz, Е-AC3, 2/0 (L,R), ~224 kbps avg |Оригинал|
Субтитры: Английские, Английские (SDH)
Реклама: Отсутствует

MediaInfo

Формат                                   : MatroskaВерсия формата                           : Version 4Размер файла                             : 5,33 ГбайтПродолжительность                        : 1 ч. 26 м.Общий поток                              : 8852 Кбит/секДата кодирования                         : UTC 2019-06-18 19:56:53Программа кодирования                    : mkvmerge v27.0.0 ('Metropolis') 32-bitБиблиотека кодирования                   : libebml v1.3.6 + libmatroska v1.4.9
ВидеоИдентификатор : 1Формат : AVCФормат/Информация : Advanced Video CodecПрофиль формата : High@L4Настройки формата : CABAC / 4 Ref FramesПараметр CABAC формата : ДаПараметр RefFrames формата : 4 кадраИдентификатор кодека : V_MPEG4/ISO/AVCПродолжительность : 1 ч. 26 м.Вид битрейта : ПостоянныйБитрейт : 8401 Кбит/секНоминальный битрейт : 10000 Кбит/секШирина : 1920 пикселейВысота : 1080 пикселейСоотношение сторон : 16:9Режим частоты кадров : ПостоянныйЧастота кадров : 23,976 (24000/1001) кадра/секЦветовое пространство : YUVСубдискретизация насыщенности : 4:2:0Битовая глубина : 8 битТип развёртки : ПрогрессивнаяБит/(Пиксели*Кадры) : 0.169Размер потока : 5,05 Гбайт (95%)Default : ДаForced : НетЦветовой диапазон : LimitedОсновные цвета : BT.709Характеристики трансфера : BT.709Коэффициенты матрицы : BT.709
Аудио #1Идентификатор : 2Формат : AC-3Формат/Информация : Audio Coding 3Коммерческое название : Dolby DigitalИдентификатор кодека : A_AC3Продолжительность : 1 ч. 26 м.Вид битрейта : ПостоянныйБитрейт : 224 Кбит/секКаналы : 2 каналаChannel layout : L RЧастота : 48,0 КГцЧастота кадров : 31,250 кадров/сек (1536 SPF)Битовая глубина : 16 битМетод сжатия : С потерямиРазмер потока : 138 Мбайт (3%)Язык : RussianServiceKind/String : Complete MainDefault : ДаForced : Нет
Аудио #2Идентификатор : 3Формат : E-AC-3Формат/Информация : Enhanced AC-3Коммерческое название : Dolby Digital PlusИдентификатор кодека : A_EAC3Продолжительность : 1 ч. 26 м.Вид битрейта : ПостоянныйБитрейт : 224 Кбит/секКаналы : 2 каналаChannel layout : L RЧастота : 48,0 КГцЧастота кадров : 31,250 кадров/сек (1536 SPF)Метод сжатия : С потерямиРазмер потока : 138 Мбайт (3%)Язык : EnglishServiceKind/String : Complete MainDefault : НетForced : Нет
Текст #1Идентификатор : 4Формат : UTF-8Идентификатор кодека : S_TEXT/UTF8Идентификатор кодека/Информация : UTF-8 Plain TextПродолжительность : 1 ч. 25 м.Битрейт : 102 бит/секElementCount : 1569Размер потока : 64,8 Кбайт (0%)Язык : EnglishDefault : НетForced : Нет
Текст #2Идентификатор : 5Формат : UTF-8Идентификатор кодека : S_TEXT/UTF8Идентификатор кодека/Информация : UTF-8 Plain TextПродолжительность : 1 ч. 25 м.Битрейт : 103 бит/секElementCount : 1621Размер потока : 65,1 Кбайт (0%)Заголовок : SDHЯзык : EnglishDefault : НетForced : Нет

Скриншоты

Чтобы скачать этот контент, Вам необходимо:
1. Скачать и установить торрент-клиент [клик для Windows], (для мобильного найдите на Play Маркет).
2. Кликнуть по [Скачать]


Внимание.
Если проверка ВЫ НЕ РОБОТ - не работает, значит Вы используете устаревший браузер.
Установите актуальный браузер и повторно кликните по [Скачать]

Запрещён Яндекс браузер. Загрузка файлов им является ошибочной.
Безопасность: торрент-клиент разрешён АВ Касперского.

[asmlocator.ru].t713175.torrent 
Торрент: Зарегистрирован [ 2020-03-03 14:25 ] · 72C2ACE6C43DF40C60C184548B488257B612C382

Скачать .torrent

Скачать

14 KB

Статус: проверено
Скачан: 0 раз
Размер: 5.33 GB
terms.php
[Профиль] [ЛС]
Показать сообщения:    
Ответить на тему

Текущее время: 31-Май 10:02

Часовой пояс: UTC ± 0



Вы не можете начинать темы
Вы не можете отвечать на сообщения
Вы не можете редактировать свои сообщения
Вы не можете удалять свои сообщения
Вы не можете голосовать в опросах
Вы не можете прикреплять файлы к сообщениям
Вы можете скачивать файлы
Верим фактам, а не вранью Путина! Факт, что Правительство ведёт Россию к истреблению.
Так как численность населения падает, даже не смотря на приток эмигрантов!
Русская нация вымирает и вырождается, смешиваясь с эмигрантами!
Факт, что военных и граждан предприятий заставляют голосовать за партию Единая Россия и Путина
ПОД СТРАХОМ УВОЛЬНЕНИЯ!
Нам не нужно Правительство, блокирующее личную жизнь, интернет, нарушающее сохранность данных.
Все эти действия финансируются за счёт народа!