Пятерка отважных (Леонид Мартынюк) [1970, детский, военный, приключения, SATRip]

Ответить на тему
Статистика раздачи
Размер:  744 MB   |    Зарегистрирован:  2 месяца 21 день   |    Скачан:  0 раз

Полного источника не было: Никогда

 
   
 
 
Автор Сообщение

star21 ®

Пол: Женский

Стаж: 4 года 6 месяцев

Сообщений: 551945

Откуда: Екатеринбург

Создавать темы 03-Мар-2020 14:25

[Цитировать]

Пятерка отважных
Год выпуска: 1970
Жанр: детский, военный, приключения
Продолжительность: 01:12:47.359 (109184 frames)
Субтитры: нет
Режиссер: Леонид Мартынюк
В ролях: Саша Примако (Данилка), Костя Леневский (Максимка), Раймундас Банионис (Кешка), Таня Щигельская (Густя), Леня Шепелев (Лева), Волдемар Акуратерс, Юрий Решетников, Стефания Станюта, Людмила Зайцева, Игорь Класс
Описание: Действие происходит в пограничном городке в первые дни Второй мировой войны. Не зная, что взрослые готовятся к партизанской войне, пятеро отважных ребят решают действовать самостоятельно... Ребята пришли в музей истории партизанского движения и буйная фантазия переносит их в самый разгар войны, на захваченную нацистами территорию, где они начинают свою собственную борьбу с врагом. Как наши юные герои будут действовать в суровое военное время, какие поступки совершат - и предстоит увидеть зрителю.
Качество: SATRip
Формат: AVI
Видео кодек: XviD
Аудио кодек: МР3
Видео: 640x464 (1.38:1), 25 fps, XviD build 73 ~1290 kbps avg, 0.17 bit/pixel
Аудио: 48 kHz, MPEG Layer 3, 2 ch, ~128.00 kbps avg

Скриншоты

Медиаинфо

General
Complete name : E:\004 Мои раздачи\Пятерка отважных 745\pyaterka_otvazhnyh_745_by_bm11.avi
Format : AVI
Format/Info : Audio Video Interleave
File size : 744 MiB
Duration : 1h 12mn
Overall bit rate : 1 429 Kbps
Director : bm11
Writing application : VirtualDubMod 1.5.10.3 | www.virtualdub-fr.org || (build 2550/release)
Video
ID : 0
Format : MPEG-4 Visual
Format profile : Advanced Simple@L5
Format settings, BVOP : 1
Format settings, QPel : No
Format settings, GMC : No warppoints
Format settings, Matrix : Custom
Codec ID : XVID
Codec ID/Hint : XviD
Duration : 1h 12mn
Bit rate : 1 291 Kbps
Width : 640 pixels
Height : 464 pixels
Display aspect ratio : 1.379
Frame rate : 25.000 fps
Color space : YUV
Chroma subsampling : 4:2:0
Bit depth : 8 bits
Scan type : Progressive
Compression mode : Lossy
Bits/(Pixel*Frame) : 0.174
Stream size : 672 MiB (90%)
Writing library : XviD 73
Audio
ID : 1
Format : MPEG Audio
Format version : Version 1
Format profile : Layer 3
Codec ID : 55
Codec ID/Hint : MP3
Duration : 1h 12mn
Bit rate mode : Constant
Bit rate : 128 Kbps
Channel(s) : 2 channels
Sampling rate : 48.0 KHz
Compression mode : Lossy
Stream size : 66.6 MiB (9%)
Alignment : Aligned on interleaves
Interleave, duration : 40 ms (1.00 video frame)
Interleave, preload duratio : 504 ms
Writing library : LAME3.99r
Encoding settings : -m s -V 4 -q 2 -lowpass 17 -b 128

Сравнение

Скрины попарно: первые мои, вторые от старой раздачи:
https://rutracker.org/forum/viewtopic.php?t=1984849

Чтобы скачать этот контент, Вам необходимо:
1. Скачать и установить торрент-клиент [клик для Windows], (для мобильного найдите на Play Маркет).
2. Кликнуть по [Скачать]


Внимание.
Если проверка ВЫ НЕ РОБОТ - не работает, значит Вы используете устаревший браузер.
Установите актуальный браузер и повторно кликните по [Скачать]

Запрещён Яндекс браузер. Загрузка файлов им является ошибочной.
Безопасность: торрент-клиент разрешён АВ Касперского.

[asmlocator.ru].t713160.torrent 
Торрент: Зарегистрирован [ 2020-03-03 14:25 ] · 97DE88E5B69B808B10A4C952419C0330D8BE24C6

Скачать .torrent

Скачать

15 KB

Статус: проверено
Скачан: 0 раз
Размер: 744 MB
terms.php
[Профиль] [ЛС]
Показать сообщения:    
Ответить на тему

Текущее время: 25-Май 01:17

Часовой пояс: UTC ± 0



Вы не можете начинать темы
Вы не можете отвечать на сообщения
Вы не можете редактировать свои сообщения
Вы не можете удалять свои сообщения
Вы не можете голосовать в опросах
Вы не можете прикреплять файлы к сообщениям
Вы можете скачивать файлы
Верим фактам, а не вранью Путина! Факт, что Правительство ведёт Россию к истреблению.
Так как численность населения падает, даже не смотря на приток эмигрантов!
Русская нация вымирает и вырождается, смешиваясь с эмигрантами!
Факт, что военных и граждан предприятий заставляют голосовать за партию Единая Россия и Путина
ПОД СТРАХОМ УВОЛЬНЕНИЯ!
Нам не нужно Правительство, блокирующее личную жизнь, интернет, нарушающее сохранность данных.
Все эти действия финансируются за счёт народа!