Сильвия / Sylvia (Кристин Джэффс / Christine Jeffs) [2003, Германия, Великобритания, драма, мелодрама, биография, WEB-DLRip] [Open Matte] DVO

Ответить на тему
Статистика раздачи
Размер:  747 MB   |    Зарегистрирован:  3 месяца 1 день   |    Скачан:  0 раз

Полного источника не было: Никогда

 
   
 
 
Автор Сообщение

star21 ®

Пол: Женский

Стаж: 4 года 6 месяцев

Сообщений: 551945

Откуда: Екатеринбург

Создавать темы 01-Мар-2020 10:35

[Цитировать]

Сильвия / Sylvia
«Она хотела известности? Нет, она хотела, чтобы её любили»
- Страна: Великобритания
Студия: BBC Films, British Film Council, Capitol Films, Focus Features, Ruby Films
Жанр: драма, мелодрама, биография
Год выпуска: 2003
Продолжительность: 01:49:34
Перевод: Профессиональный (двухголосый закадровый)
Субтитры: нет
Оригинальная аудиодорожка: нет
Режиссер: Кристин Джэффс / Christine Jeffs
В ролях: Гвинет Пэлтроу, Дэвид Биркин, Элисон Брюс, Амира Касар, Дэниэл Крэйг, Блайт Даннер, Люси Девенпорт, Джулиан Фёрт, Джереми Фоулдс, Майкл Гэмбон
Описание: Фильм повествует об истории любви и страсти двух знаменитых литераторов XX века — американской поэтессы Сильвии Плат и британского поэта Теда Хьюса. С момента первой встречи они окунулись в бурный роман.
Только вот история их семейной жизни закончилась не так, как можно было бы ожидать. Тонкая, ранимая натура, Сильвия не выдержала испытаний. А, может быть, за ее смертью кроется какая-то тайна? Картина раскрывает перед нами чарующий мир мифов и легенд о легендарной поэтессе, романтике и трагедии одной из самых ошеломляющих любовных историй нашего времени…

Тип релиза: WEB-DLRip [Neon_project]
Контейнер: AVI
Видео: 624x352 (1.77:1), 23.976 fps, XviD build 50 ~816 kbps avg, 0.16 bit/pixel
Аудио: 48 kHz, MPEG Layer 3, 2 ch, ~128.00 kbps avg

возраст: зрителям, достигшим 16 лет
рейтинг MPAA: лицам до 17 лет обязательно присутствие взрослого

MediaInfo

ОбщееПолное имя                               : \Sylvia.2003.WEB-DLRip.aviФормат                                   : AVIФормат/Информация                        : Audio Video InterleaveРазмер файла                             : 747 МбайтПродолжительность                        : 1 ч. 49 м.Общий поток                              : 954 Кбит/секНазвание фильма                          : Сильвия / SylviaРежиссёр                                 : Кристин Джэффс / Christine JeffsЖанр                                     : драма, мелодрама, биографияПрограмма кодирования                    : VirtualDubMod 1.5.10.3 | www.virtualdub-fr.org || (build 2550/release)Формат оригинала/Имя                     : фильмПримечание                               : Neon_project
ВидеоИдентификатор : 0Формат : MPEG-4 VisualПрофиль формата : Advanced Simple@L5Настройки формата : BVOP1 / Custom MatrixПараметр BVOP формата : 1Параметр QPel формата : НетПараметр GMC формата : Без точки переходаПараметр матрицы формата : ВыборочнаяИдентификатор кодека : XVIDИдентификатор кодека/Подсказка : XviDПродолжительность : 1 ч. 49 м.Битрейт : 816 Кбит/секШирина : 624 пикселяВысота : 352 пикселяСоотношение сторон : 16:9Частота кадров : 23,976 (24000/1001) кадра/секЦветовое пространство : YUVСубдискретизация насыщенности : 4:2:0Битовая глубина : 8 битТип развёртки : ПрогрессивнаяМетод сжатия : С потерямиБит/(Пиксели*Кадры) : 0.155Размер потока : 640 Мбайт (86%)Библиотека кодирования : XviD 1.2.1 (UTC 2008-12-04)
АудиоИдентификатор : 1Формат : MPEG AudioВерсия формата : Version 1Профиль формата : Layer 3Настройки формата : Joint stereoИдентификатор кодека : 55Идентификатор кодека/Подсказка : MP3Продолжительность : 1 ч. 49 м.Вид битрейта : ПостоянныйБитрейт : 128 Кбит/секКаналы : 2 каналаЧастота : 48,0 КГцЧастота кадров : 41,667 кадра/сек (1152 SPF)Метод сжатия : С потерямиРазмер потока : 100 Мбайт (13%)Выравнивание : Соединение по промежуткамПродолжительность промежутка : 42 мс. (1,00 видеокадр)Время предзагрузки промежутка : 504 мс.Библиотека кодирования : LAME3.99rНастройки программы : -m j -V 4 -q 0 -lowpass 17 -b 128

Сравнение

http://youpicture.org/?s=2019-12-29_98wl6m3vr8d3#.Xgi0glUzaUk
https://rutracker.org/forum/viewtopic.php?t=1238570
  • Разное наполнение кадра
  • Разный перевод
  • Разный монтаж фильма (некоторые сцены идут в другой последовательности, некоторые эпизоды уникальны и отсутствуют в WEB-DL)

Скриншот c названием фильма

Скриншоты


Чтобы скачать этот контент, Вам необходимо:
1. Скачать и установить торрент-клиент [клик для Windows], (для мобильного найдите на Play Маркет).
2. Кликнуть по [Скачать]


Внимание.
Если проверка ВЫ НЕ РОБОТ - не работает, значит Вы используете устаревший браузер.
Установите актуальный браузер и повторно кликните по [Скачать]

Запрещён Яндекс браузер. Загрузка файлов им является ошибочной.
Безопасность: торрент-клиент разрешён АВ Касперского.

[asmlocator.ru].t712428.torrent 
Торрент: Зарегистрирован [ 2020-03-01 10:35 ] · C250AE8C76DB69DF66004D8AF0AE9F3C6F5A2F05

Скачать .torrent

Скачать

15 KB

Статус: проверено
Скачан: 0 раз
Размер: 747 MB
terms.php
[Профиль] [ЛС]
Показать сообщения:    
Ответить на тему

Текущее время: 03-Июн 00:35

Часовой пояс: UTC ± 0



Вы не можете начинать темы
Вы не можете отвечать на сообщения
Вы не можете редактировать свои сообщения
Вы не можете удалять свои сообщения
Вы не можете голосовать в опросах
Вы не можете прикреплять файлы к сообщениям
Вы можете скачивать файлы
Верим фактам, а не вранью Путина! Факт, что Правительство ведёт Россию к истреблению.
Так как численность населения падает, даже не смотря на приток эмигрантов!
Русская нация вымирает и вырождается, смешиваясь с эмигрантами!
Факт, что военных и граждан предприятий заставляют голосовать за партию Единая Россия и Путина
ПОД СТРАХОМ УВОЛЬНЕНИЯ!
Нам не нужно Правительство, блокирующее личную жизнь, интернет, нарушающее сохранность данных.
Все эти действия финансируются за счёт народа!