Звёздная Принцесса и Силы Зла / Стар против Сил Зла / Star vs the Forces of Evil / Сезон: 4 / Серии: 1-21 из 21 (Дэвид Вассон / David Wasson) [2018, США, Мультсериал, WEB-DLRip] Dub + Original + Rus/eng Sub

Ответить на тему
Статистика раздачи
Размер:  7.6 GB   |    Зарегистрирован:  25 дней   |    Скачан:  0 раз

Полного источника не было: Никогда

 
   
 
 
Автор Сообщение

star21 ®

Пол: Женский

Стаж: 4 года 2 месяца

Сообщений: 551946

Откуда: Екатеринбург

Создавать темы 26-Дек-2019 08:00

[Цитировать]

Звёздная Принцесса и Силы Зла / Стар против Сил Зла / Star vs the Forces of Evil Страна: США
Жанр: Мультсериал
Продолжительность серии: 00:22:36
Год выпуска: 2018
Перевод: Профессиональный (дублированный)
Русские субтитры: естьРежиссёр: Дэвид Вассон / David Wasson
Роли озвучивали: Лариса Брохман, Иван Калинин, Анастасия Лапина, Александр Матвеев, Мария Бакина, Алексей Войтюк, Антон Савенков.Описание: Анимационный сериал, повествующий о приключениях юной принцессы по имени Звёздочка Баттерфляй, которая в 14 лет получила волшебную палочку. Но после того, как Звёздочка чуть ли не превратила свой родной город в прах, родители отправили её на Землю, чтобы жить с семьёй Диаз, которая состоит из добродушных родителей и подростка по имени Марко, вместе с которым она сражается со злодеями из других измерений, стараясь защитить волшебную палочку, которой она ещё только учится пользоваться.Исходником послужила эта раздача. Спасибо её автору.Качество: WEB-DLRip
Формат: AVI
Видео: XVID; 1881 Кбит/сек; 720х400 (16:9); 23,976 (24000/1001) кадра/сек
Аудио 1: Русский; AC-3; 192 Кбит/сек; 2 канала; 48,0 КГц
Аудио 2: Английский; AC-3; 224 Кбит/сек; 2 канала; 48,0 КГц
Субтитры: Русские, Английские

Список серий

1. Butterfly Follies
2. Escape from the Pie Folk
3. Moon Remembers/Swim Suit
4. Ransomgram/Lake House Fever
5. Yada Yad Berries/Down by the River
6. The Ponyhead Show/Surviving the Spider Bites
7. Out of Business/Kellys World
8. Curse of the Blood Moon
9. Princess Quasar/Caterpillar and the Magic Bell
10. Cornball/Meteoras Lesson
11. The Knight Shift/Queen-Napped
12. Junkin Janna/A Spell with No Name
13. A Boy and His DC-700XE/The Monster and the Queen
14. Cornonation
15. Doop-Doop/Brittas Tacos
16. Beach Day/Gone Baby Gone
17. Sad Teen Hotline/Jannanigans
18. Mama Star/Ready, Aim, Fire
19.The Right Way/Here to Help
20. Pizza Party/The Tavern at the End of the Multiverse
21. Cleaved

Подробные технические данные

ОбщееПолное имя                               : D:\закачки\Звёздная принцесса 4-й сезон [rurtacker.org]\01.aviФормат                                   : AVIФормат/Информация                        : Audio Video InterleaveРазмер файла                             : 374 МбайтПродолжительность                        : 22 м. 36 с.Общий поток                              : 2311 Кбит/секПрограмма кодирования                    : VirtualDubMod 1.5.10.2 (build 2540/release)Библиотека кодирования                   : VirtualDubMod build 2540/releaseВидеоИдентификатор                            : 0Формат                                   : MPEG-4 VisualПрофиль формата                          : Advanced Simple@L5Настройки формата                        : BVOP1Параметр BVOP формата                    : 1Параметр QPel формата                    : НетПараметр GMC формата                     : Без точки переходаПараметр матрицы формата                 : Default (H.263)Идентификатор кодека                     : XVIDИдентификатор кодека/Подсказка           : XviDПродолжительность                        : 22 м. 36 с.Битрейт                                  : 1881 Кбит/секШирина                                   : 720 пикселейВысота                                   : 400 пикселейСоотношение сторон                       : 16:9Частота кадров                           : 23,976 (24000/1001) кадра/секЦветовое пространство                    : YUVСубдискретизация насыщенности            : 4:2:0Битовая глубина                          : 8 битТип развёртки                            : ПрогрессивнаяМетод сжатия                             : С потерямиБит/(Пиксели*Кадры)                      : 0.272Размер потока                            : 304 Мбайт (81%)Библиотека кодирования                   : XviD 1.2.1 (UTC 2008-12-04)Аудио #1Идентификатор                            : 1Формат                                   : AC-3Формат/Информация                        : Audio Coding 3Идентификатор кодека                     : 2000Продолжительность                        : 22 м. 36 с.Вид битрейта                             : ПостоянныйБитрейт                                  : 192 Кбит/секКаналы                                   : 2 каналаРасположение каналов                     : Front: L RЧастота                                  : 48,0 КГцЧастота кадров                           : 31,250 кадров/сек (1536 SPF)Битовая глубина                          : 16 битМетод сжатия                             : С потерямиРазмер потока                            : 31,0 Мбайт (8%)Выравнивание                             : Соединение по промежуткамПродолжительность промежутка             : 42  мс. (1,00 видеокадр)Время предзагрузки промежутка            : 512  мс.ServiceKind/String                       : Complete MainАудио #2Идентификатор                            : 2Формат                                   : AC-3Формат/Информация                        : Audio Coding 3Идентификатор кодека                     : 2000Продолжительность                        : 22 м. 36 с.Вид битрейта                             : ПостоянныйБитрейт                                  : 224 Кбит/секКаналы                                   : 2 каналаРасположение каналов                     : Front: L RЧастота                                  : 48,0 КГцЧастота кадров                           : 31,250 кадров/сек (1536 SPF)Битовая глубина                          : 16 битМетод сжатия                             : С потерямиРазмер потока                            : 36,2 Мбайт (10%)Выравнивание                             : Разделение по промежуткамПродолжительность промежутка             : 42  мс. (1,00 видеокадр)Время предзагрузки промежутка            : 500  мс.ServiceKind/String                       : Complete Main

Скриншоты

сэмплВсе раздачи

Чтобы скачать этот контент, Вам необходимо:
1. Скачать и установить торрент-клиент [клик для Windows], (для мобильного найдите на Play Маркет).
2. Кликнуть по [Скачать]


Внимание.
Если проверка ВЫ НЕ РОБОТ - не работает, значит Вы используете устаревший браузер.
Установите актуальный браузер и повторно кликните по [Скачать]
Безопасность: торрент-клиент разрешён АВ Касперского.

[asmlocator.ru].t711191.torrent 
Торрент: Зарегистрирован [ 2019-12-26 08:00 ] · F2F0E2ECC2073B24660389B1E635B16D68EDEA1D

Скачать .torrent

Скачать

41 KB

Статус: проверено
Скачан: 0 раз
Размер: 7.6 GB
terms.php
[Профиль] [ЛС]
Показать сообщения:    
Ответить на тему

Текущее время: 21-Янв 06:50

Часовой пояс: UTC ± 0



Вы не можете начинать темы
Вы не можете отвечать на сообщения
Вы не можете редактировать свои сообщения
Вы не можете удалять свои сообщения
Вы не можете голосовать в опросах
Вы не можете прикреплять файлы к сообщениям
Вы можете скачивать файлы
Верим фактам, а не вранью Путина! Факт, что Правительство ведёт Россию к истреблению.
Так как численность населения падает, даже не смотря на приток эмигрантов!
Русская нация вымирает и вырождается, смешиваясь с эмигрантами!
Факт, что военных и граждан предприятий заставляют голосовать за партию Единая Россия и Путина
ПОД СТРАХОМ УВОЛЬНЕНИЯ!
Нам не нужно Правительство, блокирующее личную жизнь, интернет, нарушающее сохранность данных.
Все эти действия финансируются за счёт народа!