Клуб кабуки / Kabukibu! [TV] [12 из 12] [Без хардсаба] [JAP, Sub] [2017, школа, комедия, приключения, BDRip] [1080p]

Ответить на тему
Статистика раздачи
Размер:  13.45 GB   |    Зарегистрирован:  8 часов   |    Скачан:  0 раз

Полного источника не было: Никогда

 
   
 
 
Автор Сообщение

star21 ®

Пол: Женский

Стаж: 4 года 3 месяца

Сообщений: 551946

Откуда: Екатеринбург

Создавать темы Сегодня, в 09:55

[Цитировать]

Клуб кабуки / Kabukibu!
-Страна: Япония
Год выпуска: 2017
Жанр: школа, комедия, приключения
Тип: TV
Продолжительность: 12 эп, по ~24 мин.
Режиссер: Ёнэда Кадзухиро
Студия: Studio DEEN-AniDB | World Art | MAL-Описание: В этом аниме мы получим возможность познакомиться с миром кабуки — одним из видов традиционного театра Японии, который представляет собой синтез пения, музыки, танца и драмы. А проводником в этот мир станет Курого Курусу — пятнадцатилетний ученик старшей школы, страстно увлечённый кабуки. Он мечтает создать в школе клуб, посвящённый кабуки. Казалось бы чего проще? Нужно всего-то подать заявку и найти единомышленников. Додумав до этого места, Курого понимает, что для выполнения мечты ему предстоит преодолеть большой и трудный путь.
Качество: BDRip
Тип релиза: Без хардсаба
Формат видео: MKV
Наличие линковки: Нет
Релиз/Автор рипа: Moozzi2
Видео: AVC; 1920x1080; ~5 935 kb/s; 23.976 FPS; 8 bits
Аудио: FLAC; ~672 kb/s; 48.0 kHz; 2 ch Язык Японский
Субтитры: ASS, внешние; Язык субтитров: русский; Перевод: YakuSub Studio (licuma & Nagi & Nika_Elrik)

Подробные тех. данные

GeneralUnique ID                   : 7852582425287117471632672743617269681 (0x5E85A347C4023339CCA2143FD7D0FB1)Complete name               : Kabukibu! - 01 (BD 1920x1080 x.264 Flac)\01. Prologue As of Spring, This Guy Is….mkvFormat                      : MatroskaFormat version              : Version 4File size                   : 1.12 GiBDuration                    : 24 min 12 sOverall bit rate mode       : VariableOverall bit rate            : 6 608 kb/sEncoded date                : UTC 2019-09-15 23:44:21Writing application         : mkvmerge v28.2.0 ('The Awakening') 64-bitWriting library             : libebml v1.3.6 + libmatroska v1.4.9
VideoID : 1Format : AVCFormat/Info : Advanced Video CodecFormat profile : High@L5Format settings : CABAC / 5 Ref FramesFormat settings, CABAC : YesFormat settings, Reference : 5 framesCodec ID : V_MPEG4/ISO/AVCDuration : 24 min 12 sBit rate : 5 935 kb/sWidth : 1 920 pixelsHeight : 1 080 pixelsDisplay aspect ratio : 16:9Frame rate mode : ConstantFrame rate : 23.976 (24000/1001) FPSColor space : YUVChroma subsampling : 4:2:0Bit depth : 8 bitsScan type : ProgressiveBits/(Pixel*Frame) : 0.119Stream size : 1.00 GiB (90%)Writing library : x264 core 157 r2935 545de2fEncoding settings : cabac=1 / ref=5 / deblock=1:1:1 / analyse=0x3:0x113 / me=umh / subme=9 / psy=1 / psy_rd=1.00:0.00 / mixed_ref=1 / me_range=32 / chroma_me=1 / trellis=1 / 8x8dct=1 / cqm=0 / deadzone=21,11 / fast_pskip=0 / chroma_qp_offset=-2 / threads=34 / lookahead_threads=2 / sliced_threads=0 / nr=0 / decimate=1 / interlaced=0 / bluray_compat=0 / stitchable=1 / constrained_intra=0 / bframes=3 / b_pyramid=2 / b_adapt=2 / b_bias=0 / direct=1 / weightb=1 / open_gop=0 / weightp=1 / keyint=240 / keyint_min=23 / scenecut=40 / intra_refresh=0 / rc_lookahead=40 / rc=crf / mbtree=1 / crf=16.0 / qcomp=0.65 / qpmin=0 / qpmax=69 / qpstep=4 / ip_ratio=1.40 / aq=1:1.00Language : JapaneseDefault : YesForced : No
AudioID : 2Format : FLACFormat/Info : Free Lossless Audio CodecCodec ID : A_FLACDuration : 24 min 12 sBit rate mode : VariableBit rate : 672 kb/sChannel(s) : 2 channelsChannel layout : L RSampling rate : 48.0 kHzFrame rate : 11.719 FPS (4096 SPF)Bit depth : 16 bitsCompression mode : LosslessStream size : 116 MiB (10%)Writing library : libFLAC 1.3.2 (UTC 2017-01-01)Language : JapaneseDefault : YesForced : No

Список эпизодов

01. Prologue: As of Spring, This Guy Is...
02. Wisteria Grows in the Expression of My Love
03. You Say You Do Not Know? Then Let Me Tell You!
04. Stop, Stop! I`m Here to Stop You!
05. Hear Ye, Hear Ye!
06. Now, Upon Careful Consideration...
07. Stop a Moment, Stop a Moment!
08. The Moon Is Clouded Over...
09. I Jumped In to Intervene...
10. Family Is Eternal, but a Man Lives Only an Age
11. These Five Thieves Lined Up Here
12. Although It Is Absurd That I Should Have to Say My Name...

Скриншоты

Чтобы скачать этот контент, Вам необходимо:
1. Скачать и установить торрент-клиент [клик для Windows], (для мобильного найдите на Play Маркет).
2. Кликнуть по [Скачать]


Внимание.
Если проверка ВЫ НЕ РОБОТ - не работает, значит Вы используете устаревший браузер.
Установите актуальный браузер и повторно кликните по [Скачать]
Безопасность: торрент-клиент разрешён АВ Касперского.

[asmlocator.ru].t711038.torrent 
Торрент: Зарегистрирован [ Сегодня, в 09:55 ] · BAF81C65DAE7859C0DF6A239C84D430F04474AEB

Скачать .torrent

Скачать

36 KB

Статус: проверено
Скачан: 0 раз
Размер: 13.45 GB
terms.php
[Профиль] [ЛС]
Показать сообщения:    
Ответить на тему

Текущее время: 22-Фев 18:42

Часовой пояс: UTC ± 0



Вы не можете начинать темы
Вы не можете отвечать на сообщения
Вы не можете редактировать свои сообщения
Вы не можете удалять свои сообщения
Вы не можете голосовать в опросах
Вы не можете прикреплять файлы к сообщениям
Вы можете скачивать файлы
Верим фактам, а не вранью Путина! Факт, что Правительство ведёт Россию к истреблению.
Так как численность населения падает, даже не смотря на приток эмигрантов!
Русская нация вымирает и вырождается, смешиваясь с эмигрантами!
Факт, что военных и граждан предприятий заставляют голосовать за партию Единая Россия и Путина
ПОД СТРАХОМ УВОЛЬНЕНИЯ!
Нам не нужно Правительство, блокирующее личную жизнь, интернет, нарушающее сохранность данных.
Все эти действия финансируются за счёт народа!