Genki Rockets - make.believe в 3Д / 3D [2010, Музыка, Electronic, Pop, Synth-pop, J-pop, BDRip] Half OverUnder / Вертикальная анаморфная стереопара

Ответить на тему
Статистика раздачи
Размер:  1.59 GB   |    Зарегистрирован:  26 дней   |    Скачан:  0 раз

Полного источника не было: Никогда

 
   
 
 
Автор Сообщение

star21 ®

Пол: Женский

Стаж: 4 года 2 месяца

Сообщений: 551946

Откуда: Екатеринбург

Создавать темы 25-Дек-2019 18:45

[Цитировать]

Genki Rockets - make.believe Год выпуска: 2010
Страна: Япония (Sony Music Records)
Жанр: Музыка, Electronic, Pop, Synth-pop, J-pop
Продолжительность: 00:16:23
Перевод: Не требуетсяОписание: 3 музыкальных клипа от Genki Rockets - виртуальной группы, созданной разработчиком видеоигр Тецуя Мизугучи и продюсером звукозаписи Кэндзи Тамай.
В 2010 году Genki Rockets создали первое в мире полностью 3D CG музыкальное видео и представили его на трехмерном мероприятии Sony "make.believe" в Японии.
Содержание:
1. make.believe (05:12)
2. Star Surfer (06:26)
3. Heavenly Star (04:45)
Качество: BDRip (by Ash61) (Genki Rockets ‎– "make.believe" 3D Music Clips e.p.)
Контейнер: MKV
Формат 3D: Half OverUnder / Вертикальная анаморфная стереопара
Порядок ракурсов: левый ракурс первыйВидео: AVC / 1280х720p / 59.940 fps / 13.0; 10.0; 18.0 Mbps
Аудио: Английский / AC3 / 48 KHz / 5.1 ch / 640 Kbps (Original - BD 3D)
Субтитры: Отсутствуют

MediaInfo первого файла

General
Unique ID : 222675997530287344716296352090325175474 (0xA785D64FB9479041ACE8240C51F6CCB2)
Complete name : J:\GenkiRockets(2010)3D-hOU(Ash61)720p@59.940fps\GenkiRockets(2010)3D-hOU(Ash61)720p-1-make.believe.mkv
Format : Matroska
Format version : Version 2
File size : 506 MiB
Duration : 5mn 12s
Overall bit rate : 13.6 Mbps
Movie name : Genki Rockets - make.believe (2010) in 3D
Encoded date : UTC 2019-07-29 14:45:56
Writing application : mkvmerge v5.8.0 ('No Sleep / Pillow') built on Sep 2 2012 15:37:04
Writing library : libebml v1.2.3 + libmatroska v1.3.0Video
ID : 1
Format : AVC
Format/Info : Advanced Video Codec
Format profile : High@L4.1
Format settings, CABAC : Yes
Format settings, ReFrames : 4 frames
Codec ID : V_MPEG4/ISO/AVC
Duration : 5mn 12s
Bit rate : 13.0 Mbps
Width : 1 280 pixels
Height : 720 pixels
Display aspect ratio : 16:9
Frame rate mode : Constant
Frame rate : 59.940 (60000/1001) fps
Color space : YUV
Chroma subsampling : 4:2:0
Bit depth : 8 bits
Scan type : Progressive
Bits/(Pixel*Frame) : 0.235
Stream size : 473 MiB (93%)
Title : BDRip by Ash61
Writing library : x264 core 146 r2538 121396c
Encoding settings : cabac=1 / ref=4 / deblock=1:-3:-3 / analyse=0x3:0x113 / me=umh / subme=10 / psy=1 / psy_rd=1.00:0.00 / mixed_ref=1 / me_range=32 / chroma_me=1 / trellis=2 / 8x8dct=1 / cqm=0 / deadzone=21,11 / fast_pskip=0 / chroma_qp_offset=-2 / threads=12 / lookahead_threads=2 / sliced_threads=0 / nr=0 / decimate=0 / interlaced=0 / bluray_compat=0 / constrained_intra=0 / bframes=7 / b_pyramid=2 / b_adapt=2 / b_bias=0 / direct=3 / weightb=1 / open_gop=0 / weightp=2 / keyint=250 / keyint_min=25 / scenecut=40 / intra_refresh=0 / rc_lookahead=60 / rc=2pass / mbtree=0 / bitrate=13000 / ratetol=1.0 / qcomp=0.70 / qpmin=0 / qpmax=69 / qpstep=4 / cplxblur=20.0 / qblur=0.5 / vbv_maxrate=40000 / vbv_bufsize=30000 / nal_hrd=none / filler=0 / frame-packing=4 / ip_ratio=1.40 / pb_ratio=1.30 / aq=1:0.70
Language : English
Default : Yes
Forced : NoAudio
ID : 2
Format : AC-3
Format/Info : Audio Coding 3
Mode extension : CM (complete main)
Format settings, Endianness : Big
Codec ID : A_AC3
Duration : 5mn 12s
Bit rate mode : Constant
Bit rate : 640 Kbps
Channel(s) : 6 channels
Channel positions : Front: L C R, Side: L R, LFE
Sampling rate : 48.0 KHz
Frame rate : 31.250 fps (1536 spf)
Compression mode : Lossy
Stream size : 23.8 MiB (5%)
Title : Original
Language : English
Default : Yes
Forced : No

Для оценки 3Д - Анимированные скрины














Чтобы скачать этот контент, Вам необходимо:
1. Скачать и установить торрент-клиент [клик для Windows], (для мобильного найдите на Play Маркет).
2. Кликнуть по [Скачать]


Внимание.
Если проверка ВЫ НЕ РОБОТ - не работает, значит Вы используете устаревший браузер.
Установите актуальный браузер и повторно кликните по [Скачать]
Безопасность: торрент-клиент разрешён АВ Касперского.

[asmlocator.ru].t710982.torrent 
Торрент: Зарегистрирован [ 2019-12-25 18:45 ] · 4CAA0A6942118481173B2C6F694DAD52092B9E56

Скачать .torrent

Скачать

17 KB

Статус: проверено
Скачан: 0 раз
Размер: 1.59 GB
terms.php
[Профиль] [ЛС]
Показать сообщения:    
Ответить на тему

Текущее время: 21-Янв 06:50

Часовой пояс: UTC ± 0



Вы не можете начинать темы
Вы не можете отвечать на сообщения
Вы не можете редактировать свои сообщения
Вы не можете удалять свои сообщения
Вы не можете голосовать в опросах
Вы не можете прикреплять файлы к сообщениям
Вы можете скачивать файлы
Верим фактам, а не вранью Путина! Факт, что Правительство ведёт Россию к истреблению.
Так как численность населения падает, даже не смотря на приток эмигрантов!
Русская нация вымирает и вырождается, смешиваясь с эмигрантами!
Факт, что военных и граждан предприятий заставляют голосовать за партию Единая Россия и Путина
ПОД СТРАХОМ УВОЛЬНЕНИЯ!
Нам не нужно Правительство, блокирующее личную жизнь, интернет, нарушающее сохранность данных.
Все эти действия финансируются за счёт народа!