Ключ Саламандры (Александр Якимчук) [2011, боевик, приключения, HDRip-AVC]

Ответить на тему
Статистика раздачи
Размер:  2,18 GB   |    Зарегистрирован:  3 года   |    Скачан:  0 раз

Полного источника не было: 11 месяцев 14 дней

 
   
 
 
Автор Сообщение

star21 ®

Пол: Женский

Стаж: 3 года

Сообщений: 552916

Откуда: Екатеринбург

Создавать темы 11-Ноя-2015 07:24

[Цитировать]

Ключ Саламандры (Александр Якимчук) [2011, боевик, приключения, HDRip-AVC] Торрент
Ключ Саламандры
Формат: HDRip-AVC, MKV, H.264, AC3
Режиссер: Александр Якимчук
Жанр: боевик, приключения
Продолжительность: 01:43:46
Год выпуска: 2011
В ролях: Федор Емельяненко, Говит Ваттанакул, Рутгер Хауэр, Майкл Мэдсен, Бо-сонг Ким, Павел Делонг, Валерий Николаев, Олег Чернов, Алексей Горбунов, Валерий Соловьев
Описание: «Сегодня мы получили бесценный дар — эликсир жизни…» — гласит сенсационное заявление главы корпорации «Фарм-Лайн» в Бангкоке. Чудотворный препарат появился благодаря исследованиям свойств саламандры обновлять клетки… «Самоубийство конгрессмена! Восьмой случай за месяц! Эпидемия самоубийств!», — так звучат заголовки газет. Один из лучших полицейский тайской столицы берется за расследование череды таинственных смертей…
На острове в Юго-Восточной Азии пропала Международная научная экспедиция. Последнее сообщение, полученное от ученых, говорит об угрозе глобальной катастрофы. Спасательная группа находит на острове следы лаборатории, в которой проводили опыты над животными и людьми… Что объединяет все эти события? И почему ключ к разгадке надо искать в непроходимых азиатских джунглях…


Видео: 1044x444 (2,35:1), 24 fps, AVC (x264), , ~2559 kbps, 0.230 bit/pixel
Аудио: 48 kHz, AC3 Dolby Digital, 6 ch (3/2 (L,C,R,l,r) + LFE), ~448 kbps

Отчет MediaInfo

Полное имя : Ключ Саламандры 2011 x264 BDRip-AVC.mkv
Формат : Matroska
Размер файла : 2,18 Гбайт
Продолжительность : 1 ч. 43 м.
Общий поток : 3008 Кбит/сек
Дата кодирования : UTC 2011-11-11 10:45:11
Программа кодирования : mkvmerge v4.9.1 ('Ich will') сборка от Jul 11 2011 23:53:15
Библиотека кодирования : libebml v1.2.1 + libmatroska v1.1.1
Видео
Идентификатор : 1
Формат : AVC
Формат/Информация : Advanced Video Codec
Профиль формата :
Параметр CABAC формата : Да
Параметр ReFrames формата : 10 кадры
Идентификатор кодека : V_MPEG4/ISO/AVC
Продолжительность : 1 ч. 43 м.
Битрейт : 2559 Кбит/сек
Ширина : 1044 пикс.
Высота : 444 пикс.
Соотношение сторон : 2,35:1
Частота кадров : 24,000 кадр/сек
Цветовое пространство : YUV
Подвыборка цветности : 4:2:0
Битовая глубина : 8 бит
Тип развёртки : Прогрессивная
Бит/(Пиксели*Кадры) : 0.230
Размер потока : 1,81 Гбайт (83%)
Заголовок : Ключ Саламандры 2011 x264 BDRip-AVC Torrents.ru
Библиотека кодирования : x264 core 116 r2044 392e762
Настройки программы : cabac=1 / ref=10 / deblock=1:-2:-1 / analyse=0x3:0x133 / me=umh / subme=11 / psy=1 / psy_rd=1.10:0.05 / mixed_ref=1 / me_range=32 / chroma_me=1 / trellis=2 / 8x8dct=1 / cqm=0 / deadzone=21,11 / fast_pskip=1 / chroma_qp_offset=-5 / threads=6 / sliced_threads=0 / nr=0 / decimate=1 / interlaced=0 / bluray_compat=0 / constrained_intra=0 / bframes=10 / b_pyramid=2 / b_adapt=2 / b_bias=0 / direct=3 / weightb=1 / open_gop=0 / weightp=2 / keyint=250 / keyint_min=23 / scenecut=40 / intra_refresh=0 / rc_lookahead=60 / rc=2pass / mbtree=0 / bitrate=2559 / ratetol=1.0 / qcomp=0.65 / qpmin=0 / qpmax=51 / qpstep=4 / cplxblur=20.0 / qblur=0.5 / vbv_maxrate=20000 / vbv_bufsize=20000 / nal_hrd=none / ip_ratio=1.40 / pb_ratio=1.20 / aq=2:0.90 / zones=142340,149438,b=0.5
Язык : Russian
Аудио
Идентификатор : 2
Формат : AC-3
Формат/Информация : Audio Coding 3
Расширение режима : CM (complete main)
Идентификатор кодека : A_AC3
Продолжительность : 1 ч. 43 м.
Вид битрейта : Постоянный
Битрейт : 448 Кбит/сек
Канал(ы) : 6 канала(ов)
Расположение каналов : Front: L C R, Side: L R, LFE
Частота : 48,0 КГц
Битовая глубина : 16 бит
Метод сжатия : С потерями
Размер потока : 333 Мбайт (15%)
Заголовок : Russia
Язык : Russian

Для скачки контента: [Установить программу-клиент] и кликнуть по - СкачатьБезопасность: клиент проверен АВ Касперского

[asmlocator.ru].t71.torrent 
Торрент: Зарегистрирован [ 2015-11-11 07:23 ] · E48C41189C48067CA842D1171E81CD9C6D37DA98

Скачать .torrent

Скачать

12 KB

Статус: проверено
Скачан: 0 раз
Размер: 2,18 GB
terms.php
[Профиль] [ЛС]
Показать сообщения:    
Ответить на тему

Текущее время: 18-Ноя 06:53

Часовой пояс: UTC ± 0



Вы не можете начинать темы
Вы не можете отвечать на сообщения
Вы не можете редактировать свои сообщения
Вы не можете удалять свои сообщения
Вы не можете голосовать в опросах
Вы не можете прикреплять файлы к сообщениям
Вы можете скачивать файлы