Ледяная Одиссея академика Котлякова [2012, Россия, Документальный, SATRip]

Ответить на тему
Статистика раздачи
Размер:  440 MB   |    Зарегистрирован:  6 дней   |    Скачан:  0 раз

Полного источника не было: Никогда

 
   
 
 
Автор Сообщение

star21 ®

Пол: Женский

Стаж: 4 года 3 месяца

Сообщений: 551946

Откуда: Екатеринбург

Создавать темы 17-Фев-2020 00:30

[Цитировать]

Ледяная Одиссея академика Котлякова Страна: Россия
Студия: ВГТРК, Телеканал "Россия-2"
Жанр: Документальный
Год выпуска: 2012
Продолжительность: 00:25:36Описание: Главный вопрос, который волнует ученых всего мира - губительная деятельность человека на экосистему планеты. Теория глобального потепления. В результате накопления парникового газа в атмосфере отступают ледники, и скоро под водой может оказаться часть Европы и России, Канада и часть Северной Америки. Но есть ли у человека шанс отодвинуть роковую дату? Ответ можно найти в недалеком прошлом, когда проходили экспедиции в Антарктиду. Одним из тех, кто изучал Антарктиду, открывал ее миру, был академик РАН Владимир Котляков. В середине ХХ века Антарктида - самый загадочный и неисследованный континент. В результате исследований академик Котляков приходит к выводу, что масса льда в Антарктиде увеличивается. Льды Антарктики играют огромную роль - они уберегают нашу планету от температурных перепадов. Полученные данные позволяют описать климат последних 420 тысяч лет. Период, в котором мы живем - голоцен, когда температура на Земле теплая и ледников мало. Кроме того, ученые доказали, что увеличение парниковых газов в атмосфере не причина потепления, а следствие. Таким образом, по теории академика Котлякова, климат Земли никак не зависит от человека.Доп. информация:
Автор релиза -
Рекламы нет!Качество видео: SATRip
Формат видео: AVIВидео: XviD, 688x384 (16:9), 25.000 fps, 2200 kbps, 0.333 bit/pixel
Аудио: Русский МР3, 48000 Гц, 2ch, 192 kbps

MediaInfo

ОбщееПолное имя                               : E:\Ледяная.Одиссея.академика.Котлякова.2012.SATRip-ylnian.aviФормат                                   : AVIФормат/Информация                        : Audio Video InterleaveРазмер файла                             : 440 МбайтПродолжительность                        : 25 м. 36 с.Общий поток                              : 2402 Кбит/секПрограмма кодирования                    : VirtualDubMod 1.5.10.3 | www.virtualdub-fr.org || (build 2550/release)Библиотека кодирования                   : VirtualDubMod build 2550/releaseВидеоИдентификатор                            : 0Формат                                   : MPEG-4 VisualПрофиль формата                          : Advanced Simple@L5Настройки формата                        : BVOP1 / Custom MatrixПараметр BVOP формата                    : 1Параметр QPel формата                    : НетПараметр GMC формата                     : Без точки переходаПараметр матрицы формата                 : ВыборочнаяИдентификатор кодека                     : XVIDИдентификатор кодека/Подсказка           : XviDПродолжительность                        : 25 м. 36 с.Битрейт                                  : 2200 Кбит/секШирина                                   : 688 пикселейВысота                                   : 384 пикселяСоотношение сторон                       : 16:9Частота кадров                           : 25,000 кадров/секЦветовое пространство                    : YUVСубдискретизация насыщенности            : 4:2:0Битовая глубина                          : 8 битТип развёртки                            : ПрогрессивнаяМетод сжатия                             : С потерямиБит/(Пиксели*Кадры)                      : 0.333Размер потока                            : 403 Мбайт (92%)Библиотека кодирования                   : XviD 67АудиоИдентификатор                            : 1Формат                                   : MPEG AudioВерсия формата                           : Version 1Профиль формата                          : Layer 3Идентификатор кодека                     : 55Идентификатор кодека/Подсказка           : MP3Продолжительность                        : 25 м. 36 с.Вид битрейта                             : ПостоянныйБитрейт                                  : 192 Кбит/секКаналы                                   : 2 каналаЧастота                                  : 48,0 КГцМетод сжатия                             : С потерямиРазмер потока                            : 35,2 Мбайт (8%)Выравнивание                             : Соединение по промежуткамПродолжительность промежутка             : 40  мс. (1,00 видеокадр)Время предзагрузки промежутка            : 504  мс.

Чтобы скачать этот контент, Вам необходимо:
1. Скачать и установить торрент-клиент [клик для Windows], (для мобильного найдите на Play Маркет).
2. Кликнуть по [Скачать]


Внимание.
Если проверка ВЫ НЕ РОБОТ - не работает, значит Вы используете устаревший браузер.
Установите актуальный браузер и повторно кликните по [Скачать]
Безопасность: торрент-клиент разрешён АВ Касперского.

[asmlocator.ru].t709980.torrent 
Торрент: Зарегистрирован [ 2020-02-17 00:30 ] · 15FF8CFE817D39397F416471C4EDB005872E8AFA

Скачать .torrent

Скачать

18 KB

Статус: проверено
Скачан: 0 раз
Размер: 440 MB
terms.php
[Профиль] [ЛС]
Показать сообщения:    
Ответить на тему

Текущее время: 24-Фев 00:28

Часовой пояс: UTC ± 0



Вы не можете начинать темы
Вы не можете отвечать на сообщения
Вы не можете редактировать свои сообщения
Вы не можете удалять свои сообщения
Вы не можете голосовать в опросах
Вы не можете прикреплять файлы к сообщениям
Вы можете скачивать файлы
Верим фактам, а не вранью Путина! Факт, что Правительство ведёт Россию к истреблению.
Так как численность населения падает, даже не смотря на приток эмигрантов!
Русская нация вымирает и вырождается, смешиваясь с эмигрантами!
Факт, что военных и граждан предприятий заставляют голосовать за партию Единая Россия и Путина
ПОД СТРАХОМ УВОЛЬНЕНИЯ!
Нам не нужно Правительство, блокирующее личную жизнь, интернет, нарушающее сохранность данных.
Все эти действия финансируются за счёт народа!