Наследница по прямой (Сергей Соловьев) [1982, киноповесть, DVB]

Ответить на тему
Статистика раздачи
Размер:  3.94 GB   |    Зарегистрирован:  29 дней   |    Скачан:  0 раз

Полного источника не было: Никогда

 
   
 
 
Автор Сообщение

star21 ®

Пол: Женский

Стаж: 4 года 2 месяца

Сообщений: 551946

Откуда: Екатеринбург

Создавать темы 22-Дек-2019 08:35

[Цитировать]

Наследница по прямой Жанр: киноповесть
Год выпуска: 1982
Продолжительность: 01:29:47Режиссёр: Сергей СоловьевВ ролях: Татьяна Ковшова, Игорь Нефедов, Татьяна Друбич, Сергей Шакуров, Александр Пороховщиков, Александр Збруев, Геннадий Корольков и дрОписание: Девочка-подросток любит поэзию и считает себя прямой наследницей Пушкина. Ее тонкая восприимчивая натура кажется окружающим странной. Однако же еще более странными находит она взрослых, их отношения, полные лжи, пустоты и притворства. И когда к отцу приезжает друг детства с сыном, девочка надеется, что ее ровесник сможет стать ей настоящим другом…Доп. информация: запись с канала КультураСемпл: https://yadi.sk/i/DJPU0KAW4xzvjQКачество видео: DVB
Формат видео: TSВидео: MPEG Video, 720x576 (16:9), 25,000 кадров/сек, 5774 Кбит/сек
Аудио: MPEG Audio, 48,0 КГц, 192 Кбит/сек, 2 канала

MediaInfo

Общее
Идентификатор : 1 (0x1)
Полное имя : H:\Наследница по прямой_1982(КУ).ts
Формат : MPEG-TS
Размер файла : 3,94 Гбайт
Продолжительность : 1 ч. 29 м.
Режим общего битрейта : Переменный
Общий поток : 6278 Кбит/секВидео
Идентификатор : 1001 (0x3E9)
Идентификатор меню : 1 (0x1)
Формат : MPEG Video
Версия формата : Version 2
Профиль формата : Main@Main
Настройки формата : CustomMatrix / BVOP
Параметр BVOP формата : Да
Параметр матрицы формата : Выборочная
Параметр GOP формата : Variable
Структура изображения : Frame
Идентификатор кодека : 2
Продолжительность : 1 ч. 29 м.
Вид битрейта : Переменный
Битрейт : 5774 Кбит/сек
Максимальный битрейт : 15,0 Мбит/сек
Ширина : 720 пикселей
Высота : 576 пикселей
Соотношение сторон : 16:9
Частота кадров : 25,000 кадров/сек
Стандарт вещания : PAL
Цветовое пространство : YUV
Субдискретизация насыщенности : 4:2:0
Битовая глубина : 8 бит
Тип развёртки : Чересстрочная
Порядок развёртки : Верхнее поле первое
Метод сжатия : С потерями
Бит/(Пиксели*Кадры) : 0.557
Временной код первого кадра : 00:00:00:00
Оригинал временного кода : Group of pictures header
GOP, открыто/закрыто : Открыто
Размер потока : 3,62 Гбайт (92%)Аудио
Идентификатор : 1002 (0x3EA)
Идентификатор меню : 1 (0x1)
Формат : MPEG Audio
Версия формата : Version 1
Профиль формата : Layer 2
Идентификатор кодека : 3
Продолжительность : 1 ч. 29 м.
Вид битрейта : Постоянный
Битрейт : 192 Кбит/сек
Каналы : 2 канала
Частота : 48,0 КГц
Частота кадров : 41,667 кадра/сек (1152 SPF)
Метод сжатия : С потерями
Задержка видео : 18 мс.
Размер потока : 123 Мбайт (3%)
Язык : Russian

Скриншоты

Чтобы скачать этот контент, Вам необходимо:
1. Скачать и установить торрент-клиент [клик для Windows], (для мобильного найдите на Play Маркет).
2. Кликнуть по [Скачать]


Внимание.
Если проверка ВЫ НЕ РОБОТ - не работает, значит Вы используете устаревший браузер.
Установите актуальный браузер и повторно кликните по [Скачать]
Безопасность: торрент-клиент разрешён АВ Касперского.

[asmlocator.ru].t709979.torrent 
Торрент: Зарегистрирован [ 2019-12-22 08:35 ] · 9A3A3E12BD3798477FB7195F944EBAED1848E7AF

Скачать .torrent

Скачать

20 KB

Статус: проверено
Скачан: 0 раз
Размер: 3.94 GB
terms.php
[Профиль] [ЛС]
Показать сообщения:    
Ответить на тему

Текущее время: 21-Янв 06:52

Часовой пояс: UTC ± 0



Вы не можете начинать темы
Вы не можете отвечать на сообщения
Вы не можете редактировать свои сообщения
Вы не можете удалять свои сообщения
Вы не можете голосовать в опросах
Вы не можете прикреплять файлы к сообщениям
Вы можете скачивать файлы
Верим фактам, а не вранью Путина! Факт, что Правительство ведёт Россию к истреблению.
Так как численность населения падает, даже не смотря на приток эмигрантов!
Русская нация вымирает и вырождается, смешиваясь с эмигрантами!
Факт, что военных и граждан предприятий заставляют голосовать за партию Единая Россия и Путина
ПОД СТРАХОМ УВОЛЬНЕНИЯ!
Нам не нужно Правительство, блокирующее личную жизнь, интернет, нарушающее сохранность данных.
Все эти действия финансируются за счёт народа!