Космическая архитектура / Space Architecture (У. Шмитцер и М. Видтер) [2006, Документальный, SATRip]

Ответить на тему
Статистика раздачи
Размер:  503 MB   |    Зарегистрирован:  6 дней   |    Скачан:  0 раз

Полного источника не было: Никогда

 
   
 
 
Автор Сообщение

star21 ®

Пол: Женский

Стаж: 4 года 3 месяца

Сообщений: 551946

Откуда: Екатеринбург

Создавать темы 17-Фев-2020 00:30

[Цитировать]

Космическая архитектура / Space Architecture Дата/Год выпуска: 2006
Страна: Австрия
Жанр: Документальный
Продолжительность: 00:35:11
Перевод: Профессиональный (многоголосый закадровый)
Доп. инфо о переводе: Первый канал
Русские субтитры: нетРежиссер: У. Шмитцер и М. ВидтерОписание: То, что совсем недавно казалось утопией, скоро станет реальностью. В 2030 году люди должны высадиться на Марсе, а еще раньше, в 2018 году, планируется возвращение человека на Луну для создания там первых космических поселений.
Но выходя в космос, человек сталкивается с рядом проблем, которых нет на Земле: метеоритная опасность, повышенная радиация, полное или частичное отсутствие гравитации, что вызывает дополнительные психофизические перегрузки. Инженерам и конструкторам придется не только строить космические аппараты, но и создавать комфортную среду обитания для космонавтов. "Космическим архитекторам" придется использовать технические приемы "земной архитектуры", а также опыт, накопленный людьми в процессе решения сложных задач в суровых условиях нашей планеты.В фильме показаны многочисленные проекты лунных и марсианских станций. Космонавты, имеющие опыт долговременных космических полетов, рассказывают о том, как они представляют себе комфортабельное путешествие к далеким планетам.Доп. информация: Производство ORF, 3sat и Raum.FilmСэмпл: http://sendfile.su/1526397Качество: SATRip
Формат: AVI
Видео: XVID 704*528 4:3 1797 Kbps 25.000 fps
Аудио: MP2 192 Kbps 48.0 KHz 2 channels

MediaInfo

GeneralComplete name                    : S:\2006 - Космическая архитектура - Space Architecture (У. Шмитцер, М. Видтер)\Space Architecture (2006).aviFormat                           : AVIFormat/Info                      : Audio Video InterleaveFile size                        : 503 MiBDuration                         : 35mn 11sOverall bit rate                 : 1 996 KbpsWriting application              : VirtualDubMod 1.5.4.1 (build 2178/release)Writing library                  : VirtualDubMod build 2178/releaseVideoID                               : 0Format                           : MPEG-4 VisualFormat profile                   : Advanced Simple@L5Format settings, BVOP            : 1Format settings, QPel            : NoFormat settings, GMC             : No warppointsFormat settings, Matrix          : CustomCodec ID                         : XVIDCodec ID/Hint                    : XviDDuration                         : 35mn 11sBit rate                         : 1 797 KbpsWidth                            : 704 pixelsHeight                           : 528 pixelsDisplay aspect ratio             : 4:3Frame rate                       : 25.000 fpsColor space                      : YUVChroma subsampling               : 4:2:0Bit depth                        : 8 bitsScan type                        : ProgressiveCompression mode                 : LossyBits/(Pixel*Frame)               : 0.193Stream size                      : 452 MiB (90%)Writing library                  : XviD 1.2.1 (UTC 2008-12-04)AudioID                               : 1Format                           : MPEG AudioFormat version                   : Version 1Format profile                   : Layer 2Codec ID                         : 50Duration                         : 35mn 11sBit rate mode                    : ConstantBit rate                         : 192 KbpsChannel(s)                       : 2 channelsSampling rate                    : 48.0 KHzCompression mode                 : LossyStream size                      : 48.3 MiB (10%)Alignment                        : Aligned on interleavesInterleave, duration             : 80 ms (2.00 video frames)Interleave, preload duration     : 504 ms

Скриншоты

Чтобы скачать этот контент, Вам необходимо:
1. Скачать и установить торрент-клиент [клик для Windows], (для мобильного найдите на Play Маркет).
2. Кликнуть по [Скачать]


Внимание.
Если проверка ВЫ НЕ РОБОТ - не работает, значит Вы используете устаревший браузер.
Установите актуальный браузер и повторно кликните по [Скачать]
Безопасность: торрент-клиент разрешён АВ Касперского.

[asmlocator.ru].t709966.torrent 
Торрент: Зарегистрирован [ 2020-02-17 00:30 ] · 633D63C16EC567A1E20FE33E9C2908E5984F7E81

Скачать .torrent

Скачать

20 KB

Статус: проверено
Скачан: 0 раз
Размер: 503 MB
terms.php
[Профиль] [ЛС]
Показать сообщения:    
Ответить на тему

Текущее время: 23-Фев 22:06

Часовой пояс: UTC ± 0



Вы не можете начинать темы
Вы не можете отвечать на сообщения
Вы не можете редактировать свои сообщения
Вы не можете удалять свои сообщения
Вы не можете голосовать в опросах
Вы не можете прикреплять файлы к сообщениям
Вы можете скачивать файлы
Верим фактам, а не вранью Путина! Факт, что Правительство ведёт Россию к истреблению.
Так как численность населения падает, даже не смотря на приток эмигрантов!
Русская нация вымирает и вырождается, смешиваясь с эмигрантами!
Факт, что военных и граждан предприятий заставляют голосовать за партию Единая Россия и Путина
ПОД СТРАХОМ УВОЛЬНЕНИЯ!
Нам не нужно Правительство, блокирующее личную жизнь, интернет, нарушающее сохранность данных.
Все эти действия финансируются за счёт народа!