Дельты великих рек. Рейн и Маас / Deltas of the World. Rhine-Maas (Sylvie Deleule/Сильви Делеу) [2018, документальный, HDTV 1080i]

Ответить на тему
Статистика раздачи
Размер:  3.26 GB   |    Зарегистрирован:  1 месяц 11 дней   |    Скачан:  0 раз

Полного источника не было: Никогда

 
   
 
 
Автор Сообщение

star21 ®

Пол: Женский

Стаж: 4 года 4 месяца

Сообщений: 551945

Откуда: Екатеринбург

Создавать темы 16-Фев-2020 17:50

[Цитировать]

Дельты великих рек. Рейн и Маас / Deltas of the World. Rhine-Maas Год выпуска: 2018
Страна: EU
Студия: Arte , Apollofilm
Жанр: документальный
Продолжительность: 00:51:53
Перевод: Профессиональный (двухголосый закадровый)
Режиссер: Sylvie Deleule/Сильви ДелеуОписание: Дельты рек - это чувствительные экосистемы, и зачастую человек забывает, что он не единственный обитатель этих мест. Узнайте больше об удивительном биоразнообразии, текущем состоянии и судьбе дельт крупнейших рек нашей планетыСэмпл: http://multi-up.com/1245356Тип релиза: HDTV 1080i
Контейнер: TSВидео: AVC, PAL, 1920x1080, 16x9, 8300 Кbps, 25fps
Аудио: Русский, MP2, 2Ch, 48KHz, 192kbps
Аудио 2: Eng, MP2, 2Ch, 48KHz, 192kbps

MediaInfo

ОбщееИдентификатор                            : 1 (0x1)Полное имя                               : H:\Дельты великих рек. Рейн и Маас(2018M).tsФормат                                   : MPEG-TSРазмер файла                             : 3,26 ГбайтПродолжительность                        : 51 м. 53 с.Режим общего битрейта                    : ПеременныйОбщий поток                              : 8989 Кбит/секВидеоИдентификатор                            : 211 (0xD3)Идентификатор меню                       : 568 (0x238)Формат                                   : AVCФормат/Информация                        : Advanced Video CodecПрофиль формата                          : High@L4Настройки формата                        : CABAC / 3 Ref FramesПараметр CABAC формата                   : ДаПараметр RefFrames формата               : 3 кадраПараметр GOP формата                     : M=3, N=25Идентификатор кодека                     : 27Продолжительность                        : 51 м. 53 с.Вид битрейта                             : ПостоянныйБитрейт                                  : 8300 Кбит/секШирина                                   : 1920 пикселейВысота                                   : 1080 пикселейСоотношение сторон                       : 16:9Частота кадров                           : 25,000 кадров/секЦветовое пространство                    : YUVСубдискретизация насыщенности            : 4:2:0Битовая глубина                          : 8 битТип развёртки                            : ЧересстрочнаяМетод сохранения типа развёртки          : Раздельные поляПорядок развёртки                        : Верхнее поле первоеБит/(Пиксели*Кадры)                      : 0.160Размер потока                            : 2,96 Гбайт (91%)Аудио #1Идентификатор                            : 221 (0xDD)Идентификатор меню                       : 568 (0x238)Формат                                   : MPEG AudioВерсия формата                           : Version 1Профиль формата                          : Layer 2Идентификатор кодека                     : 3Продолжительность                        : 51 м. 53 с.Вид битрейта                             : ПостоянныйБитрейт                                  : 192 Кбит/секКаналы                                   : 2 каналаЧастота                                  : 48,0 КГцЧастота кадров                           : 41,667 кадра/сек (1152 SPF)Метод сжатия                             : С потерямиРазмер потока                            : 71,3 Мбайт (2%)Язык                                     : RussianАудио #2Идентификатор                            : 222 (0xDE)Идентификатор меню                       : 568 (0x238)Формат                                   : MPEG AudioВерсия формата                           : Version 1Профиль формата                          : Layer 2Идентификатор кодека                     : 3Продолжительность                        : 51 м. 53 с.Вид битрейта                             : ПостоянныйБитрейт                                  : 192 Кбит/секКаналы                                   : 2 каналаЧастота                                  : 48,0 КГцЧастота кадров                           : 41,667 кадра/сек (1152 SPF)Метод сжатия                             : С потерямиРазмер потока                            : 71,3 Мбайт (2%)Язык                                     : English

Чтобы скачать этот контент, Вам необходимо:
1. Скачать и установить торрент-клиент [клик для Windows], (для мобильного найдите на Play Маркет).
2. Кликнуть по [Скачать]


Внимание.
Если проверка ВЫ НЕ РОБОТ - не работает, значит Вы используете устаревший браузер.
Установите актуальный браузер и повторно кликните по [Скачать]

Запрещён Яндекс браузер. Загрузка файлов им является ошибочной.
Безопасность: торрент-клиент разрешён АВ Касперского.

[asmlocator.ru].t709851.torrent 
Торрент: Зарегистрирован [ 2020-02-16 17:50 ] · C1875DAD313C080CA9E01FA544EB110AD909CA33

Скачать .torrent

Скачать

17 KB

Статус: проверено
Скачан: 0 раз
Размер: 3.26 GB
terms.php
[Профиль] [ЛС]
Показать сообщения:    
Ответить на тему

Текущее время: 28-Мар 09:41

Часовой пояс: UTC ± 0



Вы не можете начинать темы
Вы не можете отвечать на сообщения
Вы не можете редактировать свои сообщения
Вы не можете удалять свои сообщения
Вы не можете голосовать в опросах
Вы не можете прикреплять файлы к сообщениям
Вы можете скачивать файлы
Верим фактам, а не вранью Путина! Факт, что Правительство ведёт Россию к истреблению.
Так как численность населения падает, даже не смотря на приток эмигрантов!
Русская нация вымирает и вырождается, смешиваясь с эмигрантами!
Факт, что военных и граждан предприятий заставляют голосовать за партию Единая Россия и Путина
ПОД СТРАХОМ УВОЛЬНЕНИЯ!
Нам не нужно Правительство, блокирующее личную жизнь, интернет, нарушающее сохранность данных.
Все эти действия финансируются за счёт народа!