Фридайвинг на Большом Барьерном рифе / Ultimate Freedive: The Great Barrier Reef (Greg Grainger / Грег Грейнджер) [2016, Документальный, природа, флора, фауна, фридайвинг, HDTV 1080i]

Ответить на тему
Статистика раздачи
Размер:  3.06 GB   |    Зарегистрирован:  7 дней   |    Скачан:  0 раз

Полного источника не было: Никогда

 
   
 
 
Автор Сообщение

star21 ®

Пол: Женский

Стаж: 4 года 3 месяца

Сообщений: 551946

Откуда: Екатеринбург

Создавать темы 16-Фев-2020 17:50

[Цитировать]

Фридайвинг на Большом Барьерном рифе / Ultimate Freedive: The Great Barrier Reef Год выпуска: 2016
Страна: Австралия
Студия: Grainger Tv Pty Ltd
Жанр: Документальный, природа, флора, фауна, фридайвинг
Продолжительность: 00:44:57
Перевод: Профессиональный (двухголосый закадровый)
Доп. инфо о переводе: Видеопродакшн
Режиссер: Greg Grainger / Грег ГрейнджерОписание: Марина Казанкова - 2-хкратная чемпионка мира по фридайвингу. Она умеет задерживать дыхание на 7 минут и опускаться на глубину. Ее ждет удивительный мир Большого барьерного рифа: плавание с гигантским групером и китовой акулой, нерест кораллов в полнолуние и водопады легендарного рифа-Сердце.Сэмпл: https://www.sendspace.com/file/kai3ehТип релиза: HDTV 1080i
Контейнер: MKVВидео: 1920x1080 (16:9), 25 fps, AVC (H.264), Main@L4, 9110 kbps, 25fps, 0.176 bit/pixel
Аудио: Русский 48.0 KHz, AC3 6 ch (Front: L C R, Side: L R, LFE) ch, ~448.00 kbps avg

MediaInfo

Complete name               : F:\Наладки\Фридайвинг на Большом Барьерном рифе.mkvFormat                      : MatroskaFormat version              : Version 4File size                   : 3.06 GiBDuration                    : 44 min 57 sOverall bit rate            : 9 752 kb/sEncoded date                : UTC 2019-12-08 04:20:33Writing application         : mkvmerge v6.6.0 ('The Edge Of The In Between') built on Dec  1 2013 17:55:00Writing library             : libebml v1.3.0 + libmatroska v1.4.1VideoID                          : 1Format                      : AVCFormat/Info                 : Advanced Video CodecFormat profile              : Main@L4Format settings             : CABAC / 3 Ref FramesFormat settings, CABAC      : YesFormat settings, Reference  : 3 framesCodec ID                    : V_MPEG4/ISO/AVCDuration                    : 44 min 57 sBit rate                    : 9 110 kb/sWidth                       : 1 920 pixelsHeight                      : 1 080 pixelsDisplay aspect ratio        : 16:9Frame rate mode             : ConstantFrame rate                  : 25.000 FPSColor space                 : YUVChroma subsampling          : 4:2:0Bit depth                   : 8 bitsScan type                   : InterlacedScan type, store method     : Separated fieldsScan order                  : Top Field FirstBits/(Pixel*Frame)          : 0.176Stream size                 : 2.86 GiB (93%)Default                     : YesForced                      : NoColor range                 : LimitedColor primaries             : BT.709Transfer characteristics    : BT.709Matrix coefficients         : BT.709AudioID                          : 2Format                      : AC-3Format/Info                 : Audio Coding 3Commercial name             : Dolby DigitalCodec ID                    : A_AC3Duration                    : 44 min 57 sBit rate mode               : ConstantBit rate                    : 448 kb/sChannel(s)                  : 6 channelsChannel layout              : L R C LFE Ls RsSampling rate               : 48.0 kHzFrame rate                  : 31.250 FPS (1536 SPF)Bit depth                   : 16 bitsCompression mode            : LossyStream size                 : 144 MiB (5%)Language                    : RussianService kind                : Complete MainDefault                     : YesForced                      : No

Чтобы скачать этот контент, Вам необходимо:
1. Скачать и установить торрент-клиент [клик для Windows], (для мобильного найдите на Play Маркет).
2. Кликнуть по [Скачать]


Внимание.
Если проверка ВЫ НЕ РОБОТ - не работает, значит Вы используете устаревший браузер.
Установите актуальный браузер и повторно кликните по [Скачать]
Безопасность: торрент-клиент разрешён АВ Касперского.

[asmlocator.ru].t709834.torrent 
Торрент: Зарегистрирован [ 2020-02-16 17:50 ] · C00E956298F4D7CCAB14EBEA1E0BC696B1776169

Скачать .torrent

Скачать

16 KB

Статус: проверено
Скачан: 0 раз
Размер: 3.06 GB
terms.php
[Профиль] [ЛС]
Показать сообщения:    
Ответить на тему

Текущее время: 24-Фев 00:04

Часовой пояс: UTC ± 0



Вы не можете начинать темы
Вы не можете отвечать на сообщения
Вы не можете редактировать свои сообщения
Вы не можете удалять свои сообщения
Вы не можете голосовать в опросах
Вы не можете прикреплять файлы к сообщениям
Вы можете скачивать файлы
Верим фактам, а не вранью Путина! Факт, что Правительство ведёт Россию к истреблению.
Так как численность населения падает, даже не смотря на приток эмигрантов!
Русская нация вымирает и вырождается, смешиваясь с эмигрантами!
Факт, что военных и граждан предприятий заставляют голосовать за партию Единая Россия и Путина
ПОД СТРАХОМ УВОЛЬНЕНИЯ!
Нам не нужно Правительство, блокирующее личную жизнь, интернет, нарушающее сохранность данных.
Все эти действия финансируются за счёт народа!