Кража автомобилей / Stealing Cars (Брэдли Каплан / Bradley Kaplan) [2015, США, драма, WEB-DLRip] MVO + Original Eng

Ответить на тему
Статистика раздачи
Размер:  1.75 GB   |    Зарегистрирован:  8 дней   |    Скачан:  0 раз

Полного источника не было: Никогда

 
   
 
 
Автор Сообщение

star21 ®

Пол: Женский

Стаж: 4 года 3 месяца

Сообщений: 551946

Откуда: Екатеринбург

Создавать темы 15-Фев-2020 17:10

[Цитировать]

Кража автомобилей / Stealing Cars Страна: США
Студия: Benefit Street Films, Leverage Management, Rainmaker Films
Жанр: драма
Год выпуска: 2015
Продолжительность: 01:41:37Перевод: Профессиональный (многоголосый закадровый)
Субтитры: нет
Оригинальная аудиодорожка: английскаяРежиссер: Брэдли Каплан / Bradley KaplanВ ролях: Эмори Коэн, Джон Легуизамо, Пол Спаркс, Хезер Линд, Майк Эппс, Аль Калдерон, Джефф Лима, Леопольд Менсуэлл, Фелисити Хаффман, Уильям Х. МэйсиОписание: Когда жизнь Билли Уайта пошла под откос, он ударился в криминал. Парень попался на автомобильной краже и угодил в подростковую колонию, известную как Бернвилльский лагерь для мальчиков. В первом же день Билли испытал на своей шкуре все «прелести» местных порядков и деспотизм тюремных надзирателей, которые любой случайный взгляд принимают как личное оскорбление. Своенравному, свободолюбивому и обладающему живым умом молодому человеку, который так не похож на других заключенных, здесь явно придется тяжело. Но Билли не из тех, кто легко сдается. Он решает установить свои порядки и искоренить произвол тюремщиков. Революционные идеи Уайта находят как своих сторонников, так и ярых противников… Тип релиза: WEB-DLRip [Neon_project]
Контейнер: AVIВидео: 720x384 (1.88:1), 23.976 fps, XviD build 50 ~1883 kbps avg, 0.28 bit/pixel
Аудио 1: 48 kHz, AC3 Dolby Digital, 2/0 (L,R) ch, ~192 kbps (русская)
Аудио 2: 48 kHz, AC3 Dolby Digital, 3/2 (L,C,R,l,r) + LFE ch, ~384 kbps (английская) отдельно
рейтинг MPAA: лицам до 17 лет обязательно присутствие взрослого

MediaInfo

ОбщееПолное имя                               : \Stealing.Cars.2015.WEB-DLRip\Stealing.Cars.2015.WEB-DLRip.aviФормат                                   : AVIФормат/Информация                        : Audio Video InterleaveРазмер файла                             : 1,48 ГбайтПродолжительность                        : 1 ч. 41 м.Общий поток                              : 2085 Кбит/секНазвание фильма                          : Кража автомобилей / Stealing CarsРежиссёр                                 : Брэдли Каплан / Bradley KaplanЖанр                                     : драмаПрограмма кодирования                    : VirtualDubMod 1.5.10.2 (build 2540/release)Формат оригинала/Имя                     : фильмПримечание                               : Neon_projectВидеоИдентификатор                            : 0Формат                                   : MPEG-4 VisualПрофиль формата                          : Advanced Simple@L5Настройки формата                        : BVOP1 / Custom MatrixПараметр BVOP формата                    : 1Параметр QPel формата                    : НетПараметр GMC формата                     : Без точки переходаПараметр матрицы формата                 : ВыборочнаяИдентификатор кодека                     : XVIDИдентификатор кодека/Подсказка           : XviDПродолжительность                        : 1 ч. 41 м.Битрейт                                  : 1883 Кбит/секШирина                                   : 720 пикселейВысота                                   : 384 пикселяСоотношение сторон                       : 1,85:1Частота кадров                           : 23,976 (24000/1001) кадра/секЦветовое пространство                    : YUVСубдискретизация насыщенности            : 4:2:0Битовая глубина                          : 8 битТип развёртки                            : ПрогрессивнаяМетод сжатия                             : С потерямиБит/(Пиксели*Кадры)                      : 0.284Размер потока                            : 1,34 Гбайт (90%)Библиотека кодирования                   : XviD 1.2.1 (UTC 2008-12-04)АудиоИдентификатор                            : 1Формат                                   : AC-3Формат/Информация                        : Audio Coding 3Идентификатор кодека                     : 2000Продолжительность                        : 1 ч. 41 м.Вид битрейта                             : ПостоянныйБитрейт                                  : 192 Кбит/секКаналы                                   : 2 каналаРасположение каналов                     : Front: L RЧастота                                  : 48,0 КГцЧастота кадров                           : 31,250 кадров/сек (1536 SPF)Битовая глубина                          : 16 битМетод сжатия                             : С потерямиРазмер потока                            : 140 Мбайт (9%)Выравнивание                             : Разделение по промежуткамПродолжительность промежутка             : 42  мс. (1,00 видеокадр)Время предзагрузки промежутка            : 500  мс.ServiceKind/String                       : Complete Main

Сравнение

http://youpicture.org/?s=2019-12-16_etih4u2mgedk#.XfexYtUzaUk
https://rutracker.org/forum/viewtopic.php?t=5203271
  • Допустимые параметры битрейта звуковых дорожек в формате MPEG-1 Layer 3 (MP3):
    - для стерео звука (2.0 ch / 44,1-48 kHz): 128, 160, 192, 224 kbps
    Аудио: 48 kHz, MP3, 2 ch, 256 kbps

Скриншот c названием фильма

Скриншоты


Чтобы скачать этот контент, Вам необходимо:
1. Скачать и установить торрент-клиент [клик для Windows], (для мобильного найдите на Play Маркет).
2. Кликнуть по [Скачать]


Внимание.
Если проверка ВЫ НЕ РОБОТ - не работает, значит Вы используете устаревший браузер.
Установите актуальный браузер и повторно кликните по [Скачать]
Безопасность: торрент-клиент разрешён АВ Касперского.

[asmlocator.ru].t709826.torrent 
Торрент: Зарегистрирован [ 2020-02-15 17:10 ] · D2AD5897C23E59E2609488E34A932AC90C2BD5EA

Скачать .torrent

Скачать

18 KB

Статус: проверено
Скачан: 0 раз
Размер: 1.75 GB
terms.php
[Профиль] [ЛС]
Показать сообщения:    
Ответить на тему

Текущее время: 23-Фев 23:22

Часовой пояс: UTC ± 0



Вы не можете начинать темы
Вы не можете отвечать на сообщения
Вы не можете редактировать свои сообщения
Вы не можете удалять свои сообщения
Вы не можете голосовать в опросах
Вы не можете прикреплять файлы к сообщениям
Вы можете скачивать файлы
Верим фактам, а не вранью Путина! Факт, что Правительство ведёт Россию к истреблению.
Так как численность населения падает, даже не смотря на приток эмигрантов!
Русская нация вымирает и вырождается, смешиваясь с эмигрантами!
Факт, что военных и граждан предприятий заставляют голосовать за партию Единая Россия и Путина
ПОД СТРАХОМ УВОЛЬНЕНИЯ!
Нам не нужно Правительство, блокирующее личную жизнь, интернет, нарушающее сохранность данных.
Все эти действия финансируются за счёт народа!