Гангстер, коп и дьявол / Akinjeon / The Gangster, the Cop, the Devil (Ли Вон-тхэ / Lee Won-tae) [2019, Южная Корея, боевик, криминал, триллер, BDRip-AVC] Dub (iTunes)

Ответить на тему
Статистика раздачи
Размер:  1.49 GB   |    Зарегистрирован:  2 месяца 6 дней   |    Скачан:  0 раз

Полного источника не было: Никогда

 
   
 
 
Автор Сообщение

star21 ®

Пол: Женский

Стаж: 4 года 3 месяца

Сообщений: 551946

Откуда: Екатеринбург

Создавать темы 17-Дек-2019 16:45

[Цитировать]

Гангстер, коп и дьявол / Akinjeon / The Gangster, the Cop, the Devil«Не дай дьяволу выиграть» Страна: Южная Корея
Жанр: боевик, криминал, триллер
Год выпуска: 2019
Продолжительность: 01:49:54Перевод: Профессиональный (дублированный) iTunes
Субтитры: русские (форсированные)
Оригинальная аудиодорожка: нетРежиссер: Ли Вон-тхэ / Lee Won-taeВ ролях: Ма Дон-сок, Ким Му-ёль, Ким Сон-гю, Ю Сын-мок, Чхве Мин-чхоль, Ким Юн-сон, Хо Дон-вон, Ким Сын-хён, Ким Гю-ри, Ю Джэ-мёнОписание: 2005 год. Криминальный босс провинциального города Чхонан Чан Дон-су подвергается нападению серийного убийцы и оказывается единственной выжившей жертвой. Репутация подмочена, единственный способ восстановить авторитет в глазах братвы — найти нападавшего и отомстить. Местный детектив Чон Тхэ-сок всей своей полицейской душой ненавидит организованную преступность, но ему приходится объединить силы с бандитом Дон-су, чтобы изловить ещё более ненавистного маньяка. Качество видео: BDRip-AVC / The.Gangster.the.Cop.the.Devil.2019.KOREAN.1080p.BluRay.REMUX.AVC.DTS-HD.MA.5.1-FGT
Формат видео: MKVВидео: MPEG-4 AVC, 906х378 (2.40:1), 24.000 fps, ~1523 kbps avg, 0.185 bit/pixel
Аудио: 48 kHz, AC3 Dolby Digital, 3/2 (L,C,R,l,r) + LFE ch, ~384 kbps avg

MediaInfo


Код:
Complete name : D:\Раздача\Гангстер, коп и дьявол (2019) BDRip-AVC_ivanes.mkv
Format : Matroska
Format version : Version 2
File size : 1.49 GiB
Duration : 1 h 49 min
Overall bit rate : 1 946 kb/s
Movie name : Гангстер, коп и дьявол (2019) BDRip-AVC_ivanes
Encoded date : UTC 2019-12-09 17:17:20
Writing application : mkvmerge v4.4.0 ('Die Wiederkehr') сборка от Jan 3 2011 21:40:45
Writing library : libebml v1.0.0 + libmatroska v1.0.0
Cover : Yes
Attachments : cover.jpgVideo
ID : 1
Format : AVC
Format/Info : Advanced Video Codec
Format profile : High@L4.1
Format settings : CABAC / 11 Ref Frames
Format settings, CABAC : Yes
Format settings, Reference : 11 frames
Codec ID : V_MPEG4/ISO/AVC
Duration : 1 h 49 min
Bit rate : 1 523 kb/s
Width : 906 pixels
Height : 378 pixels
Display aspect ratio : 2.40:1
Frame rate mode : Constant
Frame rate : 24.000 FPS
Color space : YUV
Chroma subsampling : 4:2:0
Bit depth : 8 bits
Scan type : Progressive
Bits/(Pixel*Frame) : 0.185
Stream size : 1.17 GiB (78%)
Title : Rip by ivanes
Writing library : x264 core 158 r2988 7817004
Encoding settings : cabac=1 / ref=11 / deblock=1:-3:-3 / analyse=0x3:0x113 / me=umh / subme=10 / psy=1 / psy_rd=1.00:0.00 / mixed_ref=1 / me_range=32 / chroma_me=1 / trellis=2 / 8x8dct=1 / cqm=0 / deadzone=21,11 / fast_pskip=0 / chroma_qp_offset=-2 / threads=12 / lookahead_threads=2 / sliced_threads=0 / nr=0 / decimate=1 / interlaced=0 / bluray_compat=0 / constrained_intra=0 / bframes=13 / b_pyramid=2 / b_adapt=2 / b_bias=0 / direct=1 / weightb=1 / open_gop=0 / weightp=2 / keyint=240 / keyint_min=24 / scenecut=40 / intra_refresh=0 / rc_lookahead=60 / rc=crf / mbtree=0 / crf=17.2 / qcomp=0.60 / qpmin=0 / qpmax=69 / qpstep=4 / vbv_maxrate=50000 / vbv_bufsize=62500 / crf_max=0.0 / nal_hrd=none / filler=0 / ip_ratio=1.40 / pb_ratio=1.30 / aq=1:1.00
Default : Yes
Forced : No
Statistics Tags Issue : mkvmerge v29.0.0 ('Like It Or Not') 64-bit 2019-12-09 17:14:55 / mkvmerge v4.4.0 ('Die Wiederkehr') сборка от Jan 3 2011 21:40:45 2019-12-09 17:17:20
FromStats_BitRate : 1560081
FromStats_Duration : 01:49:54.834000000
FromStats_FrameCount : 158276
FromStats_StreamSize : 1286060033Audio
ID : 2
Format : AC-3
Format/Info : Audio Coding 3
Commercial name : Dolby Digital
Codec ID : A_AC3
Duration : 1 h 49 min
Bit rate mode : Constant
Bit rate : 384 kb/s
Channel(s) : 6 channels
Channel layout : L R C LFE Ls Rs
Sampling rate : 48.0 kHz
Frame rate : 31.250 FPS (1536 SPF)
Compression mode : Lossy
Stream size : 302 MiB (20%)
Title : iTunes
Language : Russian
Service kind : Complete Main
Default : Yes
Forced : NoText
ID : 3
Format : UTF-8
Codec ID : S_TEXT/UTF8
Codec ID/Info : UTF-8 Plain Text
Title : Forced
Language : Russian
Default : Yes
Forced : No

Скриншоты

Чтобы скачать этот контент, Вам необходимо:
1. Скачать и установить торрент-клиент [клик для Windows], (для мобильного найдите на Play Маркет).
2. Кликнуть по [Скачать]


Внимание.
Если проверка ВЫ НЕ РОБОТ - не работает, значит Вы используете устаревший браузер.
Установите актуальный браузер и повторно кликните по [Скачать]
Безопасность: торрент-клиент разрешён АВ Касперского.

[asmlocator.ru].t709540.torrent 
Торрент: Зарегистрирован [ 2019-12-17 16:45 ] · 4837A3387DBFA1DF8660354F155009AB9B9543E6

Скачать .torrent

Скачать

15 KB

Статус: проверено
Скачан: 0 раз
Размер: 1.49 GB
terms.php
[Профиль] [ЛС]
Показать сообщения:    
Ответить на тему

Текущее время: 24-Фев 11:37

Часовой пояс: UTC ± 0



Вы не можете начинать темы
Вы не можете отвечать на сообщения
Вы не можете редактировать свои сообщения
Вы не можете удалять свои сообщения
Вы не можете голосовать в опросах
Вы не можете прикреплять файлы к сообщениям
Вы можете скачивать файлы
Верим фактам, а не вранью Путина! Факт, что Правительство ведёт Россию к истреблению.
Так как численность населения падает, даже не смотря на приток эмигрантов!
Русская нация вымирает и вырождается, смешиваясь с эмигрантами!
Факт, что военных и граждан предприятий заставляют голосовать за партию Единая Россия и Путина
ПОД СТРАХОМ УВОЛЬНЕНИЯ!
Нам не нужно Правительство, блокирующее личную жизнь, интернет, нарушающее сохранность данных.
Все эти действия финансируются за счёт народа!