Волчья яма (Болотбек Шамшиев) [1983, Детектив, Драма, VHSRip]

Ответить на тему
Статистика раздачи
Размер:  2.18 GB   |    Зарегистрирован:  2 месяца 8 дней   |    Скачан:  0 раз

Полного источника не было: Никогда

 
   
 
 
Автор Сообщение

star21 ®

Пол: Женский

Стаж: 4 года 3 месяца

Сообщений: 551946

Откуда: Екатеринбург

Создавать темы 15-Дек-2019 14:45

[Цитировать]

Волчья яма Жанр: Детектив, Драма
Год выпуска: 1983
Продолжительность: 02:17:18Режиссёр: Болотбек ШамшиевВ ролях: Талгат Нигматулин, Айтурган Темирова,Кененбай Кожабеков, Суйменкул Чокморов, Жоробек Аралбаев, Александр Милютин, Николай Крюков, Муса Мамбетов, Орозбек Кутманалиев, Виктор Мирошниченко, Тохтахун Бахтыбаев, Анатолий Плюто, Венера НигматуллинаОписание: Сирота Самат Касымов часто обращается за помощью к прикованному из-за болезни к креслу Мусе Шарипову. Он и не подозревает, что за обликом обаятельного и уважаемого человека, выдающего себя за ветерана войны, скрывается матерый преступник Бабахан. И ничего не подозревающий Самат становится "курьером" бандитской шайки...
«"Волчью яму" можно, наверное, упрекнуть в затянутости, а местами и в дидактичной схематичности сюжета. Между тем в главном Болот Шамшиев остался верен себе - история человека, ставшего преступником и потом нашедшего силы изменить свою судьбу, по-настоящему волнует. Исполнитель главной роли Талгат Нигматулин доказал здесь, что он не только замечательный каскадер, но и серьезный талантливый драматический актер. Прослеживая судьбу своего персонажа на протяжении нескольких десятилетий, авторы приходят к своего рода национальному варианту "Калины красной". Фильм у Шамшиева получился жестокий, суровый и честный...»Доп. информация: Оцифровка VHS (личный архив) и получение VHSRip alenavova Эксклюзив для rutracker.org. При размещении данного релиза на других сайтах ссылка на автора alenavova обязательна.Релиз Семпл: https://yadi.sk/i/c9glpnS7fHWwiAКачество видео: VHSRip
Формат видео: AVIВидео: 704x352 (2.00:1), 25 fps, XviD build 73 ~2075 kbps avg, 0.34 bit/pixel
Аудио: 48 kHz, AC3 Dolby Digital, 2/0 (L,R) ch, ~192 kbps

MediaInfo

Волчья яма [by alenavova].avi
Format : AVI
Format/Info : Audio Video Interleave
Format profile : OpenDML
File size : 2.18 GiB
Duration : 2 h 17 min
Overall bit rate : 2 275 kb/s
Movie name : Волчья яма [by alenavova]
Director : by alenavova
Writing application : VirtualDubMod 1.5.10.2 (build 2540/release)
Copyright : Edich2
Comment : RuTracker.orgVideo
ID : 0
Format : MPEG-4 Visual
Format profile : Advanced Simple@L5
Format settings : BVOP1 / Custom Matrix
Format settings, BVOP : 1
Format settings, QPel : No
Format settings, GMC : No warppoints
Format settings, Matrix : Custom
Codec ID : XVID
Codec ID/Hint : XviD
Duration : 2 h 17 min
Bit rate : 2 071 kb/s
Width : 704 pixels
Height : 352 pixels
Display aspect ratio : 2.000
Frame rate : 25.000 FPS
Color space : YUV
Chroma subsampling : 4:2:0
Bit depth : 8 bits
Scan type : Progressive
Compression mode : Lossy
Bits/(Pixel*Frame) : 0.334
Stream size : 1.99 GiB (91%)
Writing library : XviD 73Audio
ID : 1
Format : AC-3
Format/Info : Audio Coding 3
Codec ID : 2000
Duration : 2 h 17 min
Bit rate mode : Constant
Bit rate : 192 kb/s
Channel(s) : 2 channels
Channel positions : Front: L R
Sampling rate : 48.0 kHz
Frame rate : 31.250 FPS (1536 SPF)
Bit depth : 16 bits
Compression mode : Lossy
Delay relative to video : 200 ms
Stream size : 189 MiB (8%)
Alignment : Split accross interleaves
Interleave, duration : 40 ms (1.00 video frame)
Interleave, preload duratio : 500 ms
Service kind : Complete Main

Скриншоты

Чтобы скачать этот контент, Вам необходимо:
1. Скачать и установить торрент-клиент [клик для Windows], (для мобильного найдите на Play Маркет).
2. Кликнуть по [Скачать]


Внимание.
Если проверка ВЫ НЕ РОБОТ - не работает, значит Вы используете устаревший браузер.
Установите актуальный браузер и повторно кликните по [Скачать]
Безопасность: торрент-клиент разрешён АВ Касперского.

[asmlocator.ru].t708796.torrent 
Торрент: Зарегистрирован [ 2019-12-15 14:45 ] · 212757EBCF41CC470ABEB2F7EB22AEF251720BCE

Скачать .torrent

Скачать

11 KB

Статус: проверено
Скачан: 0 раз
Размер: 2.18 GB
terms.php
[Профиль] [ЛС]
Показать сообщения:    
Ответить на тему

Текущее время: 24-Фев 12:23

Часовой пояс: UTC ± 0



Вы не можете начинать темы
Вы не можете отвечать на сообщения
Вы не можете редактировать свои сообщения
Вы не можете удалять свои сообщения
Вы не можете голосовать в опросах
Вы не можете прикреплять файлы к сообщениям
Вы можете скачивать файлы
Верим фактам, а не вранью Путина! Факт, что Правительство ведёт Россию к истреблению.
Так как численность населения падает, даже не смотря на приток эмигрантов!
Русская нация вымирает и вырождается, смешиваясь с эмигрантами!
Факт, что военных и граждан предприятий заставляют голосовать за партию Единая Россия и Путина
ПОД СТРАХОМ УВОЛЬНЕНИЯ!
Нам не нужно Правительство, блокирующее личную жизнь, интернет, нарушающее сохранность данных.
Все эти действия финансируются за счёт народа!