Клуб любителей книг и пирогов из картофельных очистков / The Guernsey Literary and Potato Peel Pie Society (Майк Ньюэлл / Mike Newell) [2018, Великобритания, Франция, США, драма, мелодрама, история, BDRip] Dub (iTunes) + Sub (Rus, Eng) + Original Eng

Ответить на тему
Статистика раздачи
Размер:  2,17 GB   |    Зарегистрирован:  1 месяц 2 дня   |    Скачан:  0 раз

Полного источника не было: Никогда

 
   
 
 
Автор Сообщение

star21 ®

Пол: Женский

Стаж: 4 года

Сообщений: 551946

Откуда: Екатеринбург

Создавать темы 18-Окт-2019 16:00

[Цитировать]

Клуб любителей книг и пирогов из картофельных очистков / The Guernsey Literary and Potato Peel Pie Society Страна: Великобритания, Франция, США
Жанр: драма, мелодрама, история
Год выпуска: 2018
Продолжительность: 02:03:27Перевод: Профессиональный (дублированный) | iTunes
Субтитры: русские, английские
Оригинальная аудиодорожка: английскийРежиссер: Майк Ньюэлл / Mike NewellВ ролях: Лили Джеймс, Михиль Хаусман, Глен Пауэлл, Джессика Браун-Финдли, Кэтрин Паркинсон, Мэттью Гуд, Том Кортни, Пенелопа Уилтон, Брона Галлахер, Кит КоннорОписание: В послевоенном Лондоне молодая писательница Джулиет пытается найти сюжет для новой книги, но об ужасах войны писать ей решительно не хочется, прочие темы кажутся либо скучными, либо неуместными. На помощь приходит случай — в виде письма одного свиновода с острова Гернси. Оказывается, даже свинари любят почитать, и неведомый Доуси, к которому в руки попала книга, некогда принадлежавшая Джулиет, просит ее посоветовать хорошую книжную лавку. Дело в том, что на Гернси с книгами сейчас туго, поскольку остров, в годы войны оккупированный немцами, только-только возрождается к жизни. Письмо переворачивает жизнь Джулиет. История книжного клуба, ставшего прикрытием для запрещенных встреч жителей деревни, увлекает и затягивает ее. Так начинается переписка с самыми разными людьми. [imdb]http://www.imdb.com/title/tt1289403[/imdb]Качество видео: BDRip | The.Guernsey.2018.BDRemux.TeamHD-potroks
Формат видео: AVIВидео: 720x384 (1.88:1), 24.000 fps, XviD build 73 ~1743 kbps avg, 0.26 bit/pixel
Аудио 1: 48 kHz, AC3 Dolby Digital, 3/2 (L,C,R,l,r) + LFE ch, ~384 kbps | RUS
Аудио 2: 48 kHz, AC3 Dolby Digital, 3/2 (L,C,R,l,r) + LFE ch, ~384 kbps | ENG
Сэмпл

MediaInfo


Код:
Формат : AVI
Формат/Информация : Audio Video Interleave
Профиль формата : OpenDML
Размер файла : 2,17 Гбайт
Продолжительность : 2 ч. 3 м.
Общий поток : 2518 Кбит/сек
Название фильма : Клуб любителей книг и пирогов из картофельных очистков_2018_BDRip
Программа кодирования : VirtualDubMod 1.5.10.3 | www.virtualdub-fr.org || (build 2550/release)
Авторское право : порошковВидео
Идентификатор : 0
Формат : MPEG-4 Visual
Профиль формата : Advanced Simple@L5
Настройки формата : BVOP1 / Custom Matrix
Параметр BVOP формата : 1
Параметр QPel формата : Нет
Параметр GMC формата : Без точки перехода
Параметр матрицы формата : Выборочная
Идентификатор кодека : XVID
Идентификатор кодека/Подсказка : XviD
Продолжительность : 2 ч. 3 м.
Битрейт : 1732 Кбит/сек
Ширина : 720 пикселей
Высота : 384 пикселя
Соотношение сторон : 1,85:1
Частота кадров : 24,000 кадра/сек
Цветовое пространство : YUV
Субдискретизация насыщенности : 4:2:0
Битовая глубина : 8 бит
Тип развёртки : Прогрессивная
Метод сжатия : С потерями
Бит/(Пиксели*Кадры) : 0.261
Размер потока : 1,49 Гбайт (69%)
Библиотека кодирования : XviD 73Аудио #1
Идентификатор : 1
Формат : AC-3
Формат/Информация : Audio Coding 3
Коммерческое название : Dolby Digital
Идентификатор кодека : 2000
Продолжительность : 2 ч. 3 м.
Вид битрейта : Постоянный
Битрейт : 384 Кбит/сек
Каналы : 6 каналов
ChannelLayout : L R C LFE Ls Rs
Частота : 48,0 КГц
Частота кадров : 31,250 кадров/сек (1536 SPF)
Метод сжатия : С потерями
Размер потока : 339 Мбайт (15%)
Выравнивание : Разделение по промежуткам
Продолжительность промежутка : 42 мс. (1,00 видеокадр)
Время предзагрузки промежутка : 500 мс.
Заголовок : Rus
ServiceKind/String : Complete MainАудио #2
Идентификатор : 2
Формат : AC-3
Формат/Информация : Audio Coding 3
Коммерческое название : Dolby Digital
Идентификатор кодека : 2000
Продолжительность : 2 ч. 3 м.
Вид битрейта : Постоянный
Битрейт : 384 Кбит/сек
Каналы : 6 каналов
ChannelLayout : L R C LFE Ls Rs
Частота : 48,0 КГц
Частота кадров : 31,250 кадров/сек (1536 SPF)
Метод сжатия : С потерями
Размер потока : 339 Мбайт (15%)
Выравнивание : Разделение по промежуткам
Продолжительность промежутка : 42 мс. (1,00 видеокадр)
Время предзагрузки промежутка : 500 мс.
Заголовок : Eng
ServiceKind/String : Complete Main

Скриншоты


Чтобы скачать этот контент, Вам необходимо:
1. Скачать и установить торрент-клиент [клик для Windows], (для мобильного найдите на Play Маркет).
2. Кликнуть по [Скачать]


Внимание.
Если проверка ВЫ НЕ РОБОТ - не работает, значит Вы используете устаревший браузер.
Установите актуальный браузер и повторно кликните по [Скачать]
Безопасность: торрент-клиент разрешён АВ Касперского.

[asmlocator.ru].t672039.torrent 
Торрент: Зарегистрирован [ 2019-10-18 16:00 ] · 55566445E37CAF9F73D289C1324FC21BB9C720C6

Скачать .torrent

Скачать

12 KB

Статус: проверено
Скачан: 0 раз
Размер: 2,17 GB
terms.php
[Профиль] [ЛС]
Показать сообщения:    
Ответить на тему

Текущее время: 21-Ноя 01:52

Часовой пояс: UTC ± 0



Вы не можете начинать темы
Вы не можете отвечать на сообщения
Вы не можете редактировать свои сообщения
Вы не можете удалять свои сообщения
Вы не можете голосовать в опросах
Вы не можете прикреплять файлы к сообщениям
Вы можете скачивать файлы
Верим фактам, а не вранью Путина! Факт, что Правительство ведёт Россию к истреблению.
Так как численность населения падает, даже не смотря на приток эмигрантов!
Русская нация вымирает и вырождается, смешиваясь с эмигрантами!
Факт, что военных и граждан предприятий заставляют голосовать за партию Единая Россия и Путина
ПОД СТРАХОМ УВОЛЬНЕНИЯ!
Нам не нужно Правительство, блокирующее личную жизнь, интернет, нарушающее сохранность данных.
Все эти действия финансируются за счёт народа!