Спермула / Любовь - это река в России / Spermula / L\'amour est un fleuve en Russie (Шарль Маттон / Charles Matton) [1976, Франция, Эротика, ужасы, фантастика, DVDRip] [Французская версия] VO + Sub Eng + Original Fra

Ответить на тему
Статистика раздачи
Размер:  1,37 GB   |    Зарегистрирован:  1 месяц 2 дня   |    Скачан:  1 раз

Полного источника не было: 1 час 8 минут

 
   
 
 
Автор Сообщение

star21 ®

Пол: Женский

Стаж: 4 года

Сообщений: 551946

Откуда: Екатеринбург

Создавать темы 18-Окт-2019 03:20

[Цитировать]

Спермула / Любовь - это река в России / Spermula / L'amour est un fleuve en Russie [Французская версия] Жанр: Эротика, ужасы, фантастика
Страна: Франция
Студия: 5 Continents, Film and Co.
Год выпуска: 1976
Продолжительность: 01:43:15
Перевод: Одноголосый закадровый
Субтитры: английские
Оригинальная аудиодорожка: французскийРежиссер: Шарль Маттон / Charles Matton В ролях:
Дейл Хэддон / Dayle Haddon ... Spermula
Удо Кир / Udo Kier ... Werner
Франсуа Дюнойе / François Dunoyer ... Tristan
Жослин Буассо / Jocelyne Boisseau ... Cascade
Жинетт Леклерк / Ginette Leclerc ... Gromana
Изабель Меркантон / Isabelle Mercanton ... Blanche
Жорж Жере / Georges Géret ... Grop
Радиа Фрай / Radiah Frye ... Ruth
Анджела МакДональд / Angela McDonald ... Gilda
Сюзанна Джиан / Suzannah Djian ... Diamant
Мириам Мезьер / Myriam Mézières ... Bonne
Карин Петерсен / Karin Petersen ... Sala
Валери Бонье / Valérie Bonnier ... Liberte
Сильви Мэттон / Sylvie Matton ... Sylvie
Диана Чейз / Diana Chase ... Diana
Кристиан Шеврюсе / Christian Chevreuse ... CardinalОписание: Этот фильм с оригинальным французским названием «L'Amour est un fleuve en Russie» («Любовь - это река в России»), более знакомым любителям кино по англоязычному названию «Spermula» («Спермула»), создан Шарлем Маттоном, также известным как Габриэль Паскуалини (13 сентября 1931 - 19 ноября 2008), который был талантливым французским художником: живописцем, скульптором, иллюстратором, писателем, фотографом, сценаристом и режиссером кино.
«Спермула» - это раса бестелесных инопланетян, живущих на обреченной планете Спермула, и пытающихся уничтожить человеческую расу, чтобы иметь свою планету. Спермулиты принимают форму женщин, миссия которых состоит в том, чтобы высосать всю сперму из мужчин, обрекая тем самым человеческий вид на вымирание. Несмотря на предостережения о том, что им не будут доступны наслаждения от сексуальных отношений с мужчинами, все они в конце концов начинают поддаваться искушениям плоти. Знаменитый Удо Киер играет Спермулита, которого случайно сделали мужчиной (с незначительно маленьким членом), и который отказывается просить «Великую Мать» сделать его женщиной: он хочет быть мужчиной и жениться на женщине. Эта уникальная и причудливо стилизованная сатира с обычной сексуальной моралью почему-то никогда не становилась культовым хитом - и очень незаслуженно…Дополнительная информация:
Исходник найден в сети.Автор рипа: pmvБольшое спасибо за:
- аудиодорожку с русской озвучкой с раздачи https://rutracker.org/forum/viewtopic.php?t=1096791 - Roksigirl
- синхронизацию звуковой аудиодорожки - pmv IMDb = 3,9/10 (315) - https://www.imdb.com/title/tt0075251/
Кинопоиск = 4.018 (98) - https://www.kinopoisk.ru/film/22582/ПРОСЬБА к СКАЧАВШИМ. НЕ УХОДИТЕ С РАЗДАЧИ, ПОМОГИТЕ ДРУГИМ СКАЧАТЬ!!!Качество видео: DVDRip
Формат видео: AVI
Видео: 720x432 (1.67:1), 25 fps, XviD build 73 ~1498 kbps avg, 0.19 bit/pixel
Аудио #1: AC3, 48 KHz, stereo (2 ch), 192 kbps - русский
Аудио #2: AC3, 48 KHz, stereo (2 ch), 192 kbps - французский
Формат субтитров: softsub (SRT)

MediaInfo

GeneralComplete name                  : D:\torrents\Spermula (1976, rus_VO+fre)\Spermula (1976, rus_VO+fre).aviFormat                         : AVIFormat/Info                    : Audio Video InterleaveFile size                      : 1.37 GiBDuration                       : 1h 43mnOverall bit rate               : 1 898 KbpsWriting application            : VirtualDubMod 1.5.10.3 | www.virtualdub-fr.org || (build 2550/release)Writing library                : VirtualDubMod build 2550/releaseVideoID                             : 0Format                         : MPEG-4 VisualFormat profile                 : Advanced Simple@L5Format settings, BVOP          : 2Format settings, QPel          : NoFormat settings, GMC           : No warppointsFormat settings, Matrix        : Default (H.263)Codec ID                       : XVIDCodec ID/Hint                  : XviDDuration                       : 1h 43mnBit rate                       : 1 500 KbpsWidth                          : 720 pixelsHeight                         : 432 pixelsDisplay aspect ratio           : 1.667Frame rate                     : 25.000 fpsColor space                    : YUVChroma subsampling             : 4:2:0Bit depth                      : 8 bitsScan type                      : ProgressiveCompression mode               : LossyBits/(Pixel*Frame)             : 0.193Stream size                    : 1.08 GiB (79%)Writing library                : XviD 73Audio #1ID                             : 1Format                         : AC-3Format/Info                    : Audio Coding 3Mode extension                 : CM (complete main)Format settings, Endianness    : BigCodec ID                       : 2000Duration                       : 1h 43mnBit rate mode                  : ConstantBit rate                       : 192 KbpsChannel(s)                     : 2 channelsChannel positions              : Front: L RSampling rate                  : 48.0 KHzBit depth                      : 16 bitsCompression mode               : LossyStream size                    : 142 MiB (10%)Alignment                      : Split accross interleavesInterleave, duration           : 40 ms (1.00 video frame)Interleave, preload duration   : 500 msAudio #2ID                             : 2Format                         : AC-3Format/Info                    : Audio Coding 3Mode extension                 : CM (complete main)Format settings, Endianness    : BigCodec ID                       : 2000Duration                       : 1h 43mnBit rate mode                  : ConstantBit rate                       : 192 KbpsChannel(s)                     : 2 channelsChannel positions              : Front: L RSampling rate                  : 48.0 KHzBit depth                      : 16 bitsCompression mode               : LossyStream size                    : 142 MiB (10%)Alignment                      : Split accross interleavesInterleave, duration           : 40 ms (1.00 video frame)Interleave, preload duration   : 500 ms

Скриншот c названием фильма

МОИ РАЗДАЧИ НА РУТРЕКЕРЕ: https://rutracker.org/forum/tracker.php?rid=27390064

Чтобы скачать этот контент, Вам необходимо:
1. Скачать и установить торрент-клиент [клик для Windows], (для мобильного найдите на Play Маркет).
2. Кликнуть по [Скачать]


Внимание.
Если проверка ВЫ НЕ РОБОТ - не работает, значит Вы используете устаревший браузер.
Установите актуальный браузер и повторно кликните по [Скачать]
Безопасность: торрент-клиент разрешён АВ Касперского.

[asmlocator.ru].t671793.torrent 
Торрент: Зарегистрирован [ 2019-10-18 03:20 ] · 0FFF29B815C886F3C1BEB238E3630F0DF6F4E78D

Скачать .torrent

Скачать

14 KB

Статус: проверено
Скачан: 1 раз
Размер: 1,37 GB
terms.php
[Профиль] [ЛС]
Показать сообщения:    
Ответить на тему

Текущее время: 21-Ноя 01:53

Часовой пояс: UTC ± 0



Вы не можете начинать темы
Вы не можете отвечать на сообщения
Вы не можете редактировать свои сообщения
Вы не можете удалять свои сообщения
Вы не можете голосовать в опросах
Вы не можете прикреплять файлы к сообщениям
Вы можете скачивать файлы
Верим фактам, а не вранью Путина! Факт, что Правительство ведёт Россию к истреблению.
Так как численность населения падает, даже не смотря на приток эмигрантов!
Русская нация вымирает и вырождается, смешиваясь с эмигрантами!
Факт, что военных и граждан предприятий заставляют голосовать за партию Единая Россия и Путина
ПОД СТРАХОМ УВОЛЬНЕНИЯ!
Нам не нужно Правительство, блокирующее личную жизнь, интернет, нарушающее сохранность данных.
Все эти действия финансируются за счёт народа!