Ивовое дерево / Плакучая ива / Beed-e majnoon / The Willow Tree (Маджид Маджиди / Majid Majidi) [2005, Иран, драма, DVDRip] DVO (den904, DeadSno)

Ответить на тему
Статистика раздачи
Размер:  748 MB   |    Зарегистрирован:  3 месяца 11 дней   |    Скачан:  0 раз

Полного источника не было: Никогда

 
   
 
 
Автор Сообщение

star21 ®

Пол: Женский

Стаж: 4 года 2 месяца

Сообщений: 551946

Откуда: Екатеринбург

Создавать темы 18-Окт-2019 03:20

[Цитировать]

Ивовое дерево / Плакучая ива / Beed-e majnoon / The Willow Tree Страна: Иран
Жанр: драма
Год выпуска: 2005
Продолжительность: 01:33:46Перевод: Любительский (двухголосый закадровый) den904, DeadSno
Субтитры: нет
Режиссер: Маджид Маджиди / Majid MajidiВ ролях: Афарин Обеиси, Ахмад Гавахери, Лейла Отаби, Махмуд Бехразния, Мелика, Мохаммад Реза Наджи, Парвиз Парастуи, Роя Теймуриан, Фуад НахасОписание: Юсуф известный и уважаемый человек, профессор в тегеранском университете, специалист по персидской поэзии. Живет в прекрасном доме с любимой дочерью и преданной женой. У него есть практически все. За исключением зрения. После операции в Париже он прозревает. Жизнь теперь открывается ему совершенно в новом свете Рейтинг: Доп. информация: исходный DVD взят с этой раздачи, переводная звуковая дорожка – с этой раздачи.
Черные полосы (поля) сверху и снизу отрезаны не полностью, т.к. в исходном DVD – плавающее соотношение сторон с переменным заполнением кадра (см. скриншоты) Сэмпл: http://www.mediafire.com/file/bjnonqiz04xkuwz/Sampl.avi/fileКачество видео: DVDRip
Формат видео: AVIВидео: XviD, 576x368 (16:10), 25.000 fps, ~914 kbps avg, 0.172 bit/pixel
Аудио: MPEG Layer 3, 48 kHz, 192 Kbp, 2 ch

MediaInfo

ОбщееПолное имя                               : F:\Ивовое дерево.aviФормат                                   : AVIФормат/Информация                        : Audio Video InterleaveРазмер файла                             : 748 МбайтПродолжительность                        : 1 ч. 33 м.Общий поток                              : 1115 Кбит/секПрограмма кодирования                    : VirtualDubMod 1.5.10.2 (build 2540/release)Библиотека кодирования                   : VirtualDubMod build 2540/releaseВидеоИдентификатор                            : 0Формат                                   : MPEG-4 VisualПрофиль формата                          : Advanced Simple@L5Настройки формата                        : BVOP2Параметр BVOP формата                    : 2Параметр QPel формата                    : НетПараметр GMC формата                     : Без точки переходаПараметр матрицы формата                 : Default (MPEG)Идентификатор кодека                     : XVIDИдентификатор кодека/Подсказка           : XviDПродолжительность                        : 1 ч. 33 м.Битрейт                                  : 914 Кбит/секШирина                                   : 576 пикселейВысота                                   : 368 пикселейСоотношение сторон                       : 16:10Частота кадров                           : 25,000 кадров/секЦветовое пространство                    : YUVСубдискретизация насыщенности            : 4:2:0Битовая глубина                          : 8 битТип развёртки                            : ПрогрессивнаяМетод сжатия                             : С потерямиБит/(Пиксели*Кадры)                      : 0.172Размер потока                            : 613 Мбайт (82%)Библиотека кодирования                   : XviD 67АудиоИдентификатор                            : 1Формат                                   : MPEG AudioВерсия формата                           : Version 1Профиль формата                          : Layer 3Настройки формата                        : Joint stereoИдентификатор кодека                     : 55Идентификатор кодека/Подсказка           : MP3Продолжительность                        : 1 ч. 33 м.Вид битрейта                             : ПостоянныйБитрейт                                  : 192 Кбит/секКаналы                                   : 2 каналаЧастота                                  : 48,0 КГцМетод сжатия                             : С потерямиРазмер потока                            : 129 Мбайт (17%)Выравнивание                             : Соединение по промежуткамПродолжительность промежутка             : 40  мс. (1,00 видеокадр)Время предзагрузки промежутка            : 504  мс.Заголовок                                : Русский

Скриншот c названием фильма

Скриншоты

Чтобы скачать этот контент, Вам необходимо:
1. Скачать и установить торрент-клиент [клик для Windows], (для мобильного найдите на Play Маркет).
2. Кликнуть по [Скачать]


Внимание.
Если проверка ВЫ НЕ РОБОТ - не работает, значит Вы используете устаревший браузер.
Установите актуальный браузер и повторно кликните по [Скачать]
Безопасность: торрент-клиент разрешён АВ Касперского.

[asmlocator.ru].t671792.torrent 
Торрент: Зарегистрирован [ 2019-10-18 03:20 ] · 2D369AFDFE1DEBEC3113E8CC9C7DA723546DBCAC

Скачать .torrent

Скачать

30 KB

Статус: проверено
Скачан: 0 раз
Размер: 748 MB
terms.php
[Профиль] [ЛС]
Показать сообщения:    
Ответить на тему

Текущее время: 29-Янв 19:13

Часовой пояс: UTC ± 0



Вы не можете начинать темы
Вы не можете отвечать на сообщения
Вы не можете редактировать свои сообщения
Вы не можете удалять свои сообщения
Вы не можете голосовать в опросах
Вы не можете прикреплять файлы к сообщениям
Вы можете скачивать файлы
Верим фактам, а не вранью Путина! Факт, что Правительство ведёт Россию к истреблению.
Так как численность населения падает, даже не смотря на приток эмигрантов!
Русская нация вымирает и вырождается, смешиваясь с эмигрантами!
Факт, что военных и граждан предприятий заставляют голосовать за партию Единая Россия и Путина
ПОД СТРАХОМ УВОЛЬНЕНИЯ!
Нам не нужно Правительство, блокирующее личную жизнь, интернет, нарушающее сохранность данных.
Все эти действия финансируются за счёт народа!