[BAL][BLG][Народная музыка и песни] (Arabic Folk Music, Bulgarian Folk Music, Balkan Folk Music) [CD] The Turbans - The Turbans [l. Six Degrees Records] - 2018, FLAC (tracks+.cue), lossless

Ответить на тему
Статистика раздачи
Размер:  322 MB   |    Зарегистрирован:  1 месяц 4 дня   |    Скачан:  0 раз

Полного источника не было: Никогда

 
   
 
 
Автор Сообщение

star21 ®

Пол: Женский

Стаж: 4 года

Сообщений: 551946

Откуда: Екатеринбург

Создавать темы 16-Окт-2019 23:25

[Цитировать]

The Turbans | The Turbans.
Жанры: Arabic Folk Music, Bulgarian Folk Music, Balkan Folk Music
Страна группы: United Kingdom (London, Greater London)
Издатель: Six Degrees Records (USA)
Номер по каталогу: LC-19379
Источник: redacted.ch
Год издания: 2018
Аудиокодек: FLAC (*.flac)
Тип рипа: tracks+.cue
Формат: Album
Носитель: CD
Время звучания: 00:50:21
Отсутствие сканов в содержимом раздачи: да.
ТРЕКЛИСТ:
01. Riders [05:36]
02. Sinko Moy [04:59]
03. Zawi [03:45]
04. Samia [04:39]
05. Kansianitsa [04:48]
06. Aman [05:08]
07. Hamouda [01:34]
08. Chubby [05:06]
09. Madhavski Horo [05:39]
10. Ruuah [05:43]
11. Hackney [03:29]

????

eac

Exact Audio Copy V1.3 from 2. September 2016EAC extraction logfile from 9. March 2019, 22:33The Turbans / The TurbansUsed drive  : TSSTcorpDVD-ROM SN-108BB   Adapter: 1  ID: 0Read mode               : SecureUtilize accurate stream : YesDefeat audio cache      : YesMake use of C2 pointers : NoRead offset correction                      : 6Overread into Lead-In and Lead-Out          : NoFill up missing offset samples with silence : YesDelete leading and trailing silent blocks   : NoNull samples used in CRC calculations       : YesUsed interface                              : Native Win32 interface for Win NT & 2000Gap handling                                : Appended to previous trackUsed output format              : User Defined EncoderSelected bitrate                : 32 kBit/sQuality                         : HighAdd ID3 tag                     : NoCommand line compressor         : C:\Program Files (x86)\FLAC Frontend\tools\flac.exeAdditional command line options : -8 -V -T "ARTIST=%artist%" -T "TITLE=%title%" -T "ALBUM=%albumtitle%" -T "DATE=%year%" -T "TRACKNUMBER=%tracknr%" -T "GENRE=%genre%" -T "PERFORMER=%albuminterpret%" -T "COMPOSER=%composer%" %haslyrics%--tag-from-file=LYRICS="%lyricsfile%"%haslyrics% -T "ALBUMARTIST=%albumartist%" -T "DISCNUMBER=%cdnumber%" -T "TOTALDISCS=%totalcds%" -T "TOTALTRACKS=%numtracks%" -T "COMMENT=%comment%" %source% -o %dest%TOC of the extracted CD     Track |   Start  |  Length  | Start sector | End sector    ---------------------------------------------------------        1  |  0:00.00 |  5:35.30 |         0    |    25154        2  |  5:35.30 |  4:58.26 |     25155    |    47530        3  | 10:33.56 |  3:44.35 |     47531    |    64365        4  | 14:18.16 |  4:38.44 |     64366    |    85259        5  | 18:56.60 |  4:47.42 |     85260    |   106826        6  | 23:44.27 |  5:07.32 |    106827    |   129883        7  | 28:51.59 |  1:33.62 |    129884    |   136920        8  | 30:25.46 |  5:05.21 |    136921    |   159816        9  | 35:30.67 |  5:38.71 |    159817    |   185237       10  | 41:09.63 |  5:42.37 |    185238    |   210924       11  | 46:52.25 |  3:28.22 |    210925    |   226546Track  1     Filename C:\Users\Utilisateur\rips\Nouveau dossier (2)\01 Riders.wav     Pre-gap length  0:00:02.00     Peak level 84.1 %     Extraction speed 1.2 X     Track quality 100.0 %     Test CRC E30A9092     Copy CRC E30A9092     Accurately ripped (confidence 2)  [F120C87E]  (AR v2)     Copy OKTrack  2     Filename C:\Users\Utilisateur\rips\Nouveau dossier (2)\02 Sinko Moy.wav     Pre-gap length  0:00:00.56     Peak level 84.1 %     Extraction speed 1.3 X     Track quality 100.0 %     Test CRC 1B1E1E27     Copy CRC 1B1E1E27     Accurately ripped (confidence 2)  [7D46E337]  (AR v2)     Copy OKTrack  3     Filename C:\Users\Utilisateur\rips\Nouveau dossier (2)\03 Zawi.wav     Pre-gap length  0:00:01.49     Peak level 84.1 %     Extraction speed 1.4 X     Track quality 100.0 %     Test CRC AD5D4AA9     Copy CRC AD5D4AA9     Accurately ripped (confidence 2)  [2EA5D4BE]  (AR v2)     Copy OKTrack  4     Filename C:\Users\Utilisateur\rips\Nouveau dossier (2)\04 Samia.wav     Pre-gap length  0:00:03.05     Peak level 84.1 %     Extraction speed 1.5 X     Track quality 100.0 %     Test CRC 7B4B7524     Copy CRC 7B4B7524     Accurately ripped (confidence 2)  [17047AF6]  (AR v2)     Copy OKTrack  5     Filename C:\Users\Utilisateur\rips\Nouveau dossier (2)\05 Kansianitsa.wav     Pre-gap length  0:00:04.12     Peak level 84.1 %     Extraction speed 1.7 X     Track quality 100.0 %     Test CRC 20CB1547     Copy CRC 20CB1547     Accurately ripped (confidence 2)  [F7399F9C]  (AR v2)     Copy OKTrack  6     Filename C:\Users\Utilisateur\rips\Nouveau dossier (2)\06 Aman.wav     Pre-gap length  0:00:02.46     Peak level 84.1 %     Extraction speed 1.6 X     Track quality 99.9 %     Test CRC 36F20439     Copy CRC 36F20439     Accurately ripped (confidence 2)  [39EEB58B]  (AR v2)     Copy OKTrack  7     Filename C:\Users\Utilisateur\rips\Nouveau dossier (2)\07 Hamouda.wav     Pre-gap length  0:00:04.48     Peak level 69.8 %     Extraction speed 1.4 X     Track quality 100.0 %     Test CRC 1F145E6A     Copy CRC 1F145E6A     Accurately ripped (confidence 2)  [7C33C856]  (AR v2)     Copy OKTrack  8     Filename C:\Users\Utilisateur\rips\Nouveau dossier (2)\08 Chubby.wav     Pre-gap length  0:00:01.00     Peak level 84.1 %     Extraction speed 1.9 X     Track quality 100.0 %     Test CRC 1B9F5B90     Copy CRC 1B9F5B90     Accurately ripped (confidence 2)  [E87B6FAE]  (AR v2)     Copy OKTrack  9     Filename C:\Users\Utilisateur\rips\Nouveau dossier (2)\09 Madhavski Horo.wav     Pre-gap length  0:00:01.40     Peak level 84.1 %     Extraction speed 1.9 X     Track quality 99.9 %     Test CRC A947048E     Copy CRC A947048E     Accurately ripped (confidence 2)  [15B8A0F5]  (AR v2)     Copy OKTrack 10     Filename C:\Users\Utilisateur\rips\Nouveau dossier (2)\10 Ruuah.wav     Peak level 84.1 %     Extraction speed 2.2 X     Track quality 100.0 %     Test CRC 1DA78A54     Copy CRC 1DA78A54     Accurately ripped (confidence 2)  [F4A7A84A]  (AR v2)     Copy OKTrack 11     Filename C:\Users\Utilisateur\rips\Nouveau dossier (2)\11 Hackney.wav     Peak level 84.1 %     Extraction speed 2.1 X     Track quality 100.0 %     Test CRC 9FBCB5DB     Copy CRC 9FBCB5DB     Accurately ripped (confidence 2)  [6EBBAEC2]  (AR v2)     Copy OKAll tracks accurately rippedNo errors occurredEnd of status report---- CUETools DB Plugin V2.1.6[CTDB TOCID: lnZf.BKcde0Vvx9Z5W0.jQwXbSU-] foundSubmit result: lnZf.BKcde0Vvx9Z5W0.jQwXbSU- has been confirmedTrack | CTDB Status  1   | (5/5) Accurately ripped  2   | (5/5) Accurately ripped  3   | (5/5) Accurately ripped  4   | (5/5) Accurately ripped  5   | (5/5) Accurately ripped  6   | (5/5) Accurately ripped  7   | (5/5) Accurately ripped  8   | (5/5) Accurately ripped  9   | (5/5) Accurately ripped 10   | (5/5) Accurately ripped 11   | (5/5) Accurately ripped==== Log checksum 6940E9F0320326F4A05D3A2B4CCEC947D0F0FF926C64DD1B62BC56EFFD8B5B06 ====

.cue

REM GENRE "Arabic Folk Music"REM DATE 2018REM DISCID 8A0BCC0BREM COMMENT "ExactAudioCopy v1.3"PERFORMER "The Turbans"TITLE "The Turbans"FILE "01. Riders.wav" WAVE  TRACK 01 AUDIO    TITLE "Riders"    PERFORMER "The Turbans"    INDEX 01 00:00:00  TRACK 02 AUDIO    TITLE "Sinko Moy"    PERFORMER "The Turbans (feat. The London Bulgarian Choir)"    INDEX 00 05:34:63FILE "02. Sinko Moy.wav" WAVE    INDEX 01 00:00:00  TRACK 03 AUDIO    TITLE "Zawi"    PERFORMER "The Turbans"    INDEX 00 04:56:64FILE "03. Zawi.wav" WAVE    INDEX 01 00:00:00  TRACK 04 AUDIO    TITLE "Samia"    PERFORMER "The Turbans"    INDEX 00 03:41:31FILE "04. Samia.wav" WAVE    INDEX 01 00:00:00  TRACK 05 AUDIO    TITLE "Kansianitsa"    PERFORMER "The Turbans"    INDEX 00 04:34:35FILE "05. Kansianitsa.wav" WAVE    INDEX 01 00:00:00  TRACK 06 AUDIO    TITLE "Aman"    PERFORMER "The Turbans"    INDEX 00 04:45:07FILE "06. Aman.wav" WAVE    INDEX 01 00:00:00  TRACK 07 AUDIO    TITLE "Hamouda"    PERFORMER "The Turbans"    INDEX 00 05:02:71FILE "07. Hamouda.wav" WAVE    INDEX 01 00:00:00  TRACK 08 AUDIO    TITLE "Chubby"    PERFORMER "The Turbans (feat. Simo Lagnawi)"    INDEX 00 01:32:62FILE "08. Chubby.wav" WAVE    INDEX 01 00:00:00  TRACK 09 AUDIO    TITLE "Madhavski Horo"    PERFORMER "The Turbans"    INDEX 00 05:03:66FILE "09. Madhavski Horo.wav" WAVE    INDEX 01 00:00:00FILE "10. Ruuah.wav" WAVE  TRACK 10 AUDIO    TITLE "Ruuah"    PERFORMER "The Turbans"    INDEX 01 00:00:00FILE "11. Hackney.wav" WAVE  TRACK 11 AUDIO    TITLE "Hackney"    PERFORMER "The Turbans"    INDEX 01 00:00:00

Чтобы скачать этот контент, Вам необходимо:
1. Скачать и установить торрент-клиент [клик для Windows], (для мобильного найдите на Play Маркет).
2. Кликнуть по [Скачать]


Внимание.
Если проверка ВЫ НЕ РОБОТ - не работает, значит Вы используете устаревший браузер.
Установите актуальный браузер и повторно кликните по [Скачать]
Безопасность: торрент-клиент разрешён АВ Касперского.

[asmlocator.ru].t671739.torrent 
Торрент: Зарегистрирован [ 2019-10-16 23:25 ] · F304652D6228264ADC20551C77726E44EE7A7A2A

Скачать .torrent

Скачать

14 KB

Статус: проверено
Скачан: 0 раз
Размер: 322 MB
terms.php
[Профиль] [ЛС]
Показать сообщения:    
Ответить на тему

Текущее время: 21-Ноя 01:53

Часовой пояс: UTC ± 0



Вы не можете начинать темы
Вы не можете отвечать на сообщения
Вы не можете редактировать свои сообщения
Вы не можете удалять свои сообщения
Вы не можете голосовать в опросах
Вы не можете прикреплять файлы к сообщениям
Вы можете скачивать файлы
Верим фактам, а не вранью Путина! Факт, что Правительство ведёт Россию к истреблению.
Так как численность населения падает, даже не смотря на приток эмигрантов!
Русская нация вымирает и вырождается, смешиваясь с эмигрантами!
Факт, что военных и граждан предприятий заставляют голосовать за партию Единая Россия и Путина
ПОД СТРАХОМ УВОЛЬНЕНИЯ!
Нам не нужно Правительство, блокирующее личную жизнь, интернет, нарушающее сохранность данных.
Все эти действия финансируются за счёт народа!