(Score) Завод (by Юрий Быков & Иван Исьянов) - 2019 (2018), FLAC (tracks+.cue), lossless

Ответить на тему
Статистика раздачи
Размер:  212 MB   |    Зарегистрирован:  4 месяца 11 дней   |    Скачан:  0 раз

Полного источника не было: Никогда

 
   
 
 
Автор Сообщение

star21 ®

Пол: Женский

Стаж: 4 года 3 месяца

Сообщений: 551946

Откуда: Екатеринбург

Создавать темы 15-Окт-2019 03:25

[Цитировать]

Завод (Юрий Быков & Иван Исьянов) Жанр: Score
Носитель: CD
Композиторы: Юрий Быков & Иван Исьянов
Год выпуска фильма: 2018
Год выпуска диска: 2019
Аудиокодек: FLAC (*.flac)
Тип рипа: tracks+.cue
Битрейт аудио: lossless
Продолжительность: 44:04
Источник: собственный рип
Наличие сканов в содержимом раздачи: нетТреклист:
01. Завод (2:38)
02. Калугин (1:41)
03. Сердце (2:25)
04. Скопа (0:51)
05. Засада-конвой (2:39)
06. Туман (1:11)
07. Фас (1:32)
08. Один (1:03)
09. Облава (2:03)
10. Идея (3:11)
11. Концерт (1:14)
12. Правда (1:36)
13. Страх (2:53)
14. Сумка (1:58)
15. Бой (4:58)
16. Революция (3:37)
17. Облака (0:52)
18. Седой (2:21)
19. Рассвет (5:21)

Лог создания рипа

Exact Audio Copy V1.3 from 2. September 2016EAC extraction logfile from 19. July 2019, 20:11Yuri Bykov & Ivan Isyanov / ZavodUsed drive  : HL-DT-STDVDRAM GT50N   Adapter: 1  ID: 0Read mode               : SecureUtilize accurate stream : YesDefeat audio cache      : YesMake use of C2 pointers : NoRead offset correction                      : 48Overread into Lead-In and Lead-Out          : NoFill up missing offset samples with silence : YesDelete leading and trailing silent blocks   : NoNull samples used in CRC calculations       : YesUsed interface                              : Native Win32 interface for Win NT & 2000Gap handling                                : Appended to previous trackUsed output format              : User Defined EncoderSelected bitrate                : 1024 kBit/sQuality                         : HighAdd ID3 tag                     : NoCommand line compressor         : C:\Program Files (x86)\Exact Audio Copy\FLAC\FLAC.EXEAdditional command line options : -6 -V -T "ARTIST=%artist%" -T "TITLE=%title%" -T "ALBUM=%albumtitle%" -T "DATE=%year%" -T "TRACKNUMBER=%tracknr%" -T "GENRE=%genre%" -T "COMMENT=%comment%" -T "BAND=%albuminterpret%" -T "ALBUMARTIST=%albuminterpret%" -T "COMPOSER=%composer%" %haslyrics%--tag-from-file=LYRICS="%lyricsfile%"%haslyrics% -T "DISCNUMBER=%cdnumber%" -T "TOTALDISCS=%totalcds%" -T "TOTALTRACKS=%numtracks%" %hascover%--picture="%coverfile%"%hascover% %source% -o %dest%TOC of the extracted CD     Track |   Start  |  Length  | Start sector | End sector    ---------------------------------------------------------        1  |  0:00.00 |  2:38.60 |         0    |    11909        2  |  2:38.60 |  1:41.23 |     11910    |    19507        3  |  4:20.08 |  2:25.53 |     19508    |    30435        4  |  6:45.61 |  0:51.15 |     30436    |    34275        5  |  7:37.01 |  2:39.38 |     34276    |    46238        6  | 10:16.39 |  1:11.45 |     46239    |    51608        7  | 11:28.09 |  1:32.38 |     51609    |    58546        8  | 13:00.47 |  1:03.30 |     58547    |    63301        9  | 14:04.02 |  2:03.30 |     63302    |    72556       10  | 16:07.32 |  3:11.38 |     72557    |    86919       11  | 19:18.70 |  1:14.53 |     86920    |    92522       12  | 20:33.48 |  1:36.53 |     92523    |    99775       13  | 22:10.26 |  2:53.30 |     99776    |   112780       14  | 25:03.56 |  1:58.00 |    112781    |   121630       15  | 27:01.56 |  4:58.00 |    121631    |   143980       16  | 31:59.56 |  3:37.23 |    143981    |   160278       17  | 35:37.04 |  0:52.15 |    160279    |   164193       18  | 36:29.19 |  2:21.23 |    164194    |   174791       19  | 38:50.42 |  5:21.15 |    174792    |   198881Track  1     Filename C:\Restless Rips\Yuri Bykov & Ivan Isyanov - 2019 - Zavod Soundtrack (flac)\01. Zavod.wav     Peak level 95.6 %     Extraction speed 4.4 X     Track quality 100.0 %     Test CRC A5433F96     Copy CRC A5433F96     Track not present in AccurateRip database     Copy OKTrack  2     Filename C:\Restless Rips\Yuri Bykov & Ivan Isyanov - 2019 - Zavod Soundtrack (flac)\02. Kalugin.wav     Peak level 95.7 %     Extraction speed 4.6 X     Track quality 100.0 %     Test CRC 861ED46C     Copy CRC 861ED46C     Track not present in AccurateRip database     Copy OKTrack  3     Filename C:\Restless Rips\Yuri Bykov & Ivan Isyanov - 2019 - Zavod Soundtrack (flac)\03. Serdtse.wav     Peak level 97.0 %     Extraction speed 4.7 X     Track quality 100.0 %     Test CRC 8F7B9546     Copy CRC 8F7B9546     Track not present in AccurateRip database     Copy OKTrack  4     Filename C:\Restless Rips\Yuri Bykov & Ivan Isyanov - 2019 - Zavod Soundtrack (flac)\04. Skopa.wav     Peak level 96.5 %     Extraction speed 4.9 X     Track quality 100.0 %     Test CRC 5EDB7490     Copy CRC 5EDB7490     Track not present in AccurateRip database     Copy OKTrack  5     Filename C:\Restless Rips\Yuri Bykov & Ivan Isyanov - 2019 - Zavod Soundtrack (flac)\05. Zasada-konvoi.wav     Peak level 96.6 %     Extraction speed 5.2 X     Track quality 100.0 %     Test CRC 9CC05016     Copy CRC 9CC05016     Track not present in AccurateRip database     Copy OKTrack  6     Filename C:\Restless Rips\Yuri Bykov & Ivan Isyanov - 2019 - Zavod Soundtrack (flac)\06. Tuman.wav     Peak level 83.7 %     Extraction speed 4.9 X     Track quality 100.0 %     Test CRC FCDFFD0A     Copy CRC FCDFFD0A     Track not present in AccurateRip database     Copy OKTrack  7     Filename C:\Restless Rips\Yuri Bykov & Ivan Isyanov - 2019 - Zavod Soundtrack (flac)\07. Fas.wav     Peak level 95.8 %     Extraction speed 5.1 X     Track quality 100.0 %     Test CRC 5FE6E39F     Copy CRC 5FE6E39F     Track not present in AccurateRip database     Copy OKTrack  8     Filename C:\Restless Rips\Yuri Bykov & Ivan Isyanov - 2019 - Zavod Soundtrack (flac)\08. Odin.wav     Peak level 96.0 %     Extraction speed 3.1 X     Track quality 99.8 %     Test CRC 86E26F2D     Copy CRC 86E26F2D     Track not present in AccurateRip database     Copy OKTrack  9     Filename C:\Restless Rips\Yuri Bykov & Ivan Isyanov - 2019 - Zavod Soundtrack (flac)\09. Oblava.wav     Peak level 94.5 %     Extraction speed 5.4 X     Track quality 100.0 %     Test CRC 1B1C7B6F     Copy CRC 1B1C7B6F     Track not present in AccurateRip database     Copy OKTrack 10     Filename C:\Restless Rips\Yuri Bykov & Ivan Isyanov - 2019 - Zavod Soundtrack (flac)\10. Ideya.wav     Peak level 95.9 %     Extraction speed 5.7 X     Track quality 100.0 %     Test CRC 01ABA47C     Copy CRC 01ABA47C     Track not present in AccurateRip database     Copy OKTrack 11     Filename C:\Restless Rips\Yuri Bykov & Ivan Isyanov - 2019 - Zavod Soundtrack (flac)\11. Koncert.wav     Peak level 96.5 %     Extraction speed 3.5 X     Track quality 99.8 %     Test CRC 02376281     Copy CRC 02376281     Track not present in AccurateRip database     Copy OKTrack 12     Filename C:\Restless Rips\Yuri Bykov & Ivan Isyanov - 2019 - Zavod Soundtrack (flac)\12. Pravda.wav     Peak level 95.4 %     Extraction speed 6.1 X     Track quality 100.0 %     Test CRC CD9A227B     Copy CRC CD9A227B     Track not present in AccurateRip database     Copy OKTrack 13     Filename C:\Restless Rips\Yuri Bykov & Ivan Isyanov - 2019 - Zavod Soundtrack (flac)\13. Strah.wav     Peak level 96.1 %     Extraction speed 6.3 X     Track quality 100.0 %     Test CRC 9F31F329     Copy CRC 9F31F329     Track not present in AccurateRip database     Copy OKTrack 14     Filename C:\Restless Rips\Yuri Bykov & Ivan Isyanov - 2019 - Zavod Soundtrack (flac)\14. Sumka.wav     Peak level 96.1 %     Extraction speed 6.5 X     Track quality 100.0 %     Test CRC DBBED81A     Copy CRC DBBED81A     Track not present in AccurateRip database     Copy OKTrack 15     Filename C:\Restless Rips\Yuri Bykov & Ivan Isyanov - 2019 - Zavod Soundtrack (flac)\15. Boi.wav     Peak level 96.0 %     Extraction speed 6.6 X     Track quality 100.0 %     Test CRC 0210ACC4     Copy CRC 0210ACC4     Track not present in AccurateRip database     Copy OKTrack 16     Filename C:\Restless Rips\Yuri Bykov & Ivan Isyanov - 2019 - Zavod Soundtrack (flac)\16. Revolyuciya.wav     Peak level 96.4 %     Extraction speed 6.8 X     Track quality 100.0 %     Test CRC 56CDB4AC     Copy CRC 56CDB4AC     Track not present in AccurateRip database     Copy OKTrack 17     Filename C:\Restless Rips\Yuri Bykov & Ivan Isyanov - 2019 - Zavod Soundtrack (flac)\17. Oblaka.wav     Peak level 94.0 %     Extraction speed 7.0 X     Track quality 100.0 %     Test CRC 7551CA94     Copy CRC 7551CA94     Track not present in AccurateRip database     Copy OKTrack 18     Filename C:\Restless Rips\Yuri Bykov & Ivan Isyanov - 2019 - Zavod Soundtrack (flac)\18. Sedoi.wav     Peak level 96.1 %     Extraction speed 6.9 X     Track quality 100.0 %     Test CRC DFBB6F9A     Copy CRC DFBB6F9A     Track not present in AccurateRip database     Copy OKTrack 19     Filename C:\Restless Rips\Yuri Bykov & Ivan Isyanov - 2019 - Zavod Soundtrack (flac)\19. Rassvet.wav     Peak level 97.1 %     Extraction speed 7.4 X     Track quality 100.0 %     Test CRC C4B164BB     Copy CRC C4B164BB     Track not present in AccurateRip database     Copy OKNone of the tracks are present in the AccurateRip databaseNo errors occurredEnd of status report---- CUETools DB Plugin V2.1.6[CTDB TOCID: ViCajE54CzjL61t5pGkhyeBCzJo-] disk not present in databaseSubmit result: ViCajE54CzjL61t5pGkhyeBCzJo- has been uploaded

Содержание индексной карты (.CUE)

REM GENRE SoundtrackREM DATE 2019REM DISCID EF0A5B13PERFORMER "Yuri Bykov & Ivan Isyanov"TITLE "Zavod"FILE "01. Zavod.wav" WAVE  TRACK 01 AUDIO    TITLE "Zavod"    PERFORMER "Yuri Bykov & Ivan Isyanov"    INDEX 01 00:00:00FILE "02. Kalugin.wav" WAVE  TRACK 02 AUDIO    TITLE "Kalugin"    PERFORMER "Yuri Bykov & Ivan Isyanov"    INDEX 01 00:00:00FILE "03. Serdtse.wav" WAVE  TRACK 03 AUDIO    TITLE "Serdtse"    PERFORMER "Yuri Bykov & Ivan Isyanov"    INDEX 01 00:00:00FILE "04. Skopa.wav" WAVE  TRACK 04 AUDIO    TITLE "Skopa"    PERFORMER "Yuri Bykov & Ivan Isyanov"    INDEX 01 00:00:00FILE "05. Zasada-konvoi.wav" WAVE  TRACK 05 AUDIO    TITLE "Zasada-konvoi"    PERFORMER "Yuri Bykov & Ivan Isyanov"    INDEX 01 00:00:00FILE "06. Tuman.wav" WAVE  TRACK 06 AUDIO    TITLE "Tuman"    PERFORMER "Yuri Bykov & Ivan Isyanov"    INDEX 01 00:00:00FILE "07. Fas.wav" WAVE  TRACK 07 AUDIO    TITLE "Fas"    PERFORMER "Yuri Bykov & Ivan Isyanov"    INDEX 01 00:00:00FILE "08. Odin.wav" WAVE  TRACK 08 AUDIO    TITLE "Odin"    PERFORMER "Yuri Bykov & Ivan Isyanov"    INDEX 01 00:00:00FILE "09. Oblava.wav" WAVE  TRACK 09 AUDIO    TITLE "Oblava"    PERFORMER "Yuri Bykov & Ivan Isyanov"    INDEX 01 00:00:00FILE "10. Ideya.wav" WAVE  TRACK 10 AUDIO    TITLE "Ideya"    PERFORMER "Yuri Bykov & Ivan Isyanov"    INDEX 01 00:00:00FILE "11. Koncert.wav" WAVE  TRACK 11 AUDIO    TITLE "Koncert"    PERFORMER "Yuri Bykov & Ivan Isyanov"    INDEX 01 00:00:00FILE "12. Pravda.wav" WAVE  TRACK 12 AUDIO    TITLE "Pravda"    PERFORMER "Yuri Bykov & Ivan Isyanov"    INDEX 01 00:00:00FILE "13. Strah.wav" WAVE  TRACK 13 AUDIO    TITLE "Strah"    PERFORMER "Yuri Bykov & Ivan Isyanov"    INDEX 01 00:00:00FILE "14. Sumka.wav" WAVE  TRACK 14 AUDIO    TITLE "Sumka"    PERFORMER "Yuri Bykov & Ivan Isyanov"    INDEX 01 00:00:00FILE "15. Boi.wav" WAVE  TRACK 15 AUDIO    TITLE "Boi"    PERFORMER "Yuri Bykov & Ivan Isyanov"    INDEX 01 00:00:00FILE "16. Revolyuciya.wav" WAVE  TRACK 16 AUDIO    TITLE "Revolyuciya"    PERFORMER "Yuri Bykov & Ivan Isyanov"    INDEX 01 00:00:00FILE "17. Oblaka.wav" WAVE  TRACK 17 AUDIO    TITLE "Oblaka"    PERFORMER "Yuri Bykov & Ivan Isyanov"    INDEX 01 00:00:00FILE "18. Sedoi.wav" WAVE  TRACK 18 AUDIO    TITLE "Sedoi"    PERFORMER "Yuri Bykov & Ivan Isyanov"    INDEX 01 00:00:00FILE "19. Rassvet.wav" WAVE  TRACK 19 AUDIO    TITLE "Rassvet"    PERFORMER "Yuri Bykov & Ivan Isyanov"    INDEX 01 00:00:00

Чтобы скачать этот контент, Вам необходимо:
1. Скачать и установить торрент-клиент [клик для Windows], (для мобильного найдите на Play Маркет).
2. Кликнуть по [Скачать]


Внимание.
Если проверка ВЫ НЕ РОБОТ - не работает, значит Вы используете устаревший браузер.
Установите актуальный браузер и повторно кликните по [Скачать]
Безопасность: торрент-клиент разрешён АВ Касперского.

[asmlocator.ru].t671233.torrent 
Торрент: Зарегистрирован [ 2019-10-15 03:25 ] · A38BB04A1DBD55AD78704628F2A89B4211F76297

Скачать .torrent

Скачать

18 KB

Статус: проверено
Скачан: 0 раз
Размер: 212 MB
terms.php
[Профиль] [ЛС]
Показать сообщения:    
Ответить на тему

Текущее время: 26-Фев 07:48

Часовой пояс: UTC ± 0



Вы не можете начинать темы
Вы не можете отвечать на сообщения
Вы не можете редактировать свои сообщения
Вы не можете удалять свои сообщения
Вы не можете голосовать в опросах
Вы не можете прикреплять файлы к сообщениям
Вы можете скачивать файлы
Верим фактам, а не вранью Путина! Факт, что Правительство ведёт Россию к истреблению.
Так как численность населения падает, даже не смотря на приток эмигрантов!
Русская нация вымирает и вырождается, смешиваясь с эмигрантами!
Факт, что военных и граждан предприятий заставляют голосовать за партию Единая Россия и Путина
ПОД СТРАХОМ УВОЛЬНЕНИЯ!
Нам не нужно Правительство, блокирующее личную жизнь, интернет, нарушающее сохранность данных.
Все эти действия финансируются за счёт народа!