22 июня, ровно в 4 часа (Борис Галкин) [1992, драма, DVB]

Ответить на тему
Статистика раздачи
Размер:  1,94 GB   |    Зарегистрирован:  1 месяц 9 дней   |    Скачан:  1 раз

Полного источника не было: 1 час 6 минут

 
   
 
 
Автор Сообщение

star21 ®

Пол: Женский

Стаж: 4 года

Сообщений: 551946

Откуда: Екатеринбург

Создавать темы 11-Окт-2019 05:05

[Цитировать]

22 июня, ровно в 4 часа Жанр: драма
Год выпуска: 1992
Продолжительность: 01:33:36Режиссёр: Борис ГалкинВ ролях: Сергей Паршин, Александр Паршин, Ирина Розанова, Антонина Шуранова, Сергей Арцибашев, Борис Батуев, Анна Белова, Полина Белова, Сергей Волкош, Александр Галкин, Борис Галкин, Владислав Галкин, Лилия Гурова, Наталья Дикарева, Елена Стародуб, Владимир Ермилов, Валерий Захарьев, Евгений Леонов-Гладышев, Николай Крюков, Татьяна Лисицына, М. Сенькина, Константин ТитовОписание: последние мирные дни перед войной. Капитан Василий Брагин получает отпуск и едет в Ленинград за своей семьей. Ряд событий, порой трагических, обрушивается на его друзей, меняя планы на отпуск. В город герой попадает только 22 июня (1941 года) в четыре часа утра...Доп. информация: запись потока *.ts со спутника ABS-1, ремукс в *.mkv программой VideoReDo.Качество видео: DVB
Формат видео: MKVВидео: MPEG2 Video, 720(768)x576 (4:3), 25,000 кадров/сек, 2783 Кбит/сек
Аудио: MPEG Audio, 48,0 КГц, 128 Кбит/сек, 2 канала

MediaInfo

Общее
Уникальный идентификатор : 40242285891117689914257587346916930848 (0x1E4661E1383CCB3D5EA3E59EE4467520)
Полное имя : H:\НАШЕ_А_И\22 ИЮНЯ РОВНО В 4 ЧАСА (RETRO).mkv
Формат : Matroska
Версия формата : Version 2
Размер файла : 1,94 Гбайт
Продолжительность : 1 ч. 33 м.
Режим общего битрейта : Переменный
Общий поток : 2970 Кбит/сек
Программа кодирования : Lavf52.64.2
Библиотека кодирования : Lavf52.64.2Видео
Идентификатор : 1
Формат : MPEG Video
Версия формата : Version 2
Профиль формата : Main@Main
Параметр BVOP формата : Да
Параметр матрицы формата : Выборочная
Параметр GOP формата : Variable
Структура изображения : Frame
Идентификатор кодека : V_MPEG2
Идентификатор кодека/Информация : MPEG 1 or 2 Video
Продолжительность : 1 ч. 33 м.
Вид битрейта : Переменный
Битрейт : 2783 Кбит/сек
Максимальный битрейт : 2880 Кбит/сек
Ширина : 720 пикселей
Высота : 576 пикселей
Соотношение сторон : 4:3
Соотношение сторон в оригинале : 4:3
Режим частоты кадров : Постоянный
Частота кадров : 25,000 кадров/сек
Стандарт вещания : PAL
Цветовое пространство : YUV
Субдискретизация насыщенности : 4:2:0
Битовая глубина : 8 бит
Тип развёртки : Чересстрочная
Порядок развёртки : Верхнее поле первое
Метод сжатия : С потерями
Бит/(Пиксели*Кадры) : 0.268
Временной код первого кадра : 00:00:00:00
Оригинал временного кода : Group of pictures header
GOP, открыто/закрыто : Открыто
Размер потока : 1,82 Гбайт (94%)
Default : Да
Forced : НетАудио
Идентификатор : 2
Формат : MPEG Audio
Версия формата : Version 1
Профиль формата : Layer 2
Идентификатор кодека : A_MPEG/L2
Идентификатор кодека/Подсказка : MP2
Продолжительность : 1 ч. 33 м.
Вид битрейта : Постоянный
Битрейт : 128 Кбит/сек
Каналы : 2 канала
Частота : 48,0 КГц
Метод сжатия : С потерями
Задержка видео : 12 мс.
Размер потока : 85,7 Мбайт (4%)
Язык : Russian
Default : Да
Forced : Нет

Скриншот c названием фильма

Чтобы скачать этот контент, Вам необходимо:
1. Скачать и установить торрент-клиент [клик для Windows], (для мобильного найдите на Play Маркет).
2. Кликнуть по [Скачать]


Внимание.
Если проверка ВЫ НЕ РОБОТ - не работает, значит Вы используете устаревший браузер.
Установите актуальный браузер и повторно кликните по [Скачать]
Безопасность: торрент-клиент разрешён АВ Касперского.

[asmlocator.ru].t670121.torrent 
Торрент: Зарегистрирован [ 2019-10-11 05:05 ] · 25C0CCAB04DB393D0502C859219A5AE438B77D6F

Скачать .torrent

Скачать

20 KB

Статус: проверено
Скачан: 1 раз
Размер: 1,94 GB
terms.php
[Профиль] [ЛС]
Показать сообщения:    
Ответить на тему

Текущее время: 21-Ноя 01:51

Часовой пояс: UTC ± 0



Вы не можете начинать темы
Вы не можете отвечать на сообщения
Вы не можете редактировать свои сообщения
Вы не можете удалять свои сообщения
Вы не можете голосовать в опросах
Вы не можете прикреплять файлы к сообщениям
Вы можете скачивать файлы
Верим фактам, а не вранью Путина! Факт, что Правительство ведёт Россию к истреблению.
Так как численность населения падает, даже не смотря на приток эмигрантов!
Русская нация вымирает и вырождается, смешиваясь с эмигрантами!
Факт, что военных и граждан предприятий заставляют голосовать за партию Единая Россия и Путина
ПОД СТРАХОМ УВОЛЬНЕНИЯ!
Нам не нужно Правительство, блокирующее личную жизнь, интернет, нарушающее сохранность данных.
Все эти действия финансируются за счёт народа!