Top Of The Pops (17.12.1987) [2019, Pop, Rock, Disco, SATRip]

Ответить на тему
Статистика раздачи
Размер:  535 MB   |    Зарегистрирован:  4 дня   |    Скачан:  0 раз

Полного источника не было: Никогда

 
   
 
 
Автор Сообщение

star21 ®

Пол: Женский

Стаж: 3 года 11 месяцев

Сообщений: 551988

Откуда: Екатеринбург

Создавать темы 10-Окт-2019 04:05

[Цитировать]

Top Of The Pops (17.12.1987) Страна: VA
Жанр: Pop, Rock, Disco
Продолжительность: 00:27:06
Год выпуска: 2019
https://www.bbc.co.uk/programmes/m0005hjd
Источник: собственный рипКачество: SATRip
Контейнер: MKV
Видео кодек: H.264
Аудио кодек: MP2
Видео: MPEG4 Video (H264) 720x540 2500 kbps 25 fps
Аудио: MP2 256kbps 48kHz 2chОписание:
Top of the Pops (TOTP) — музыкальная программа британского телевидения, выходившая на BBC и транслировавшаяся во многих странах мира. TOTP, своего рода телеверсия национального хит-парада выходила еженедельно с 1 января 1964 года по 30 июля 2006 года. Несмотря на то, что шоу официально закрыто, оно продолжает существовать в рождественской версии.

Треклист

Wet Wet Wet - Angel Eyes (Home & Away)
Simply Red - Ev'ry Time We Say Goodbye
The Pogues & Kirsty MacColl - Fairytale of New York
Belinda Carlisle - Heaven Is A Place On Earth
Pet Shop Boys - Always On My Mind
Madonna - The Look Of Love (Video/Credits)

MediaInfo:

Format : Matroska
Format version : Version 4 / Version 2
File size : 535 MiB
Duration : 27 min 6 s
Overall bit rate mode : Variable
Overall bit rate : 2 757 kb/s
Encoded date : UTC 2019-07-25 23:07:39
Writing application : mkvmerge v32.0.0 ('Astral Progressions') 32-bit
Writing library : libebml v1.3.7 + libmatroska v1.5.0Video
ID : 1
Format : AVC
Format/Info : Advanced Video Codec
Format profile : High@L4.1
Format settings : CABAC / 3 Ref Frames
Format settings, CABAC : Yes
Format settings, ReFrames : 3 frames
Codec ID : V_MPEG4/ISO/AVC
Duration : 27 min 6 s
Bit rate mode : Variable
Bit rate : 2 500 kb/s
Maximum bit rate : 14.0 Mb/s
Width : 720 pixels
Height : 540 pixels
Display aspect ratio : 4:3
Frame rate mode : Constant
Frame rate : 25.000 FPS
Color space : YUV
Chroma subsampling : 4:2:0
Bit depth : 8 bits
Scan type : Progressive
Bits/(Pixel*Frame) : 0.257
Stream size : 485 MiB (91%)
Writing library : x264 core 155 r2901 7d0ff22
Encoding settings : cabac=1 / ref=3 / deblock=1:0:0 / analyse=0x3:0x113 / me=hex / subme=7 / psy=1 / psy_rd=1.00:0.00 / mixed_ref=1 / me_range=16 / chroma_me=1 / trellis=1 / 8x8dct=1 / cqm=0 / deadzone=21,11 / fast_pskip=1 / chroma_qp_offset=-2 / threads=17 / lookahead_threads=2 / sliced_threads=0 / slices=4 / nr=0 / decimate=1 / interlaced=0 / bluray_compat=1 / constrained_intra=0 / bframes=3 / b_pyramid=1 / b_adapt=1 / b_bias=0 / direct=1 / weightb=1 / open_gop=1 / weightp=1 / keyint=250 / keyint_min=1 / scenecut=40 / intra_refresh=0 / rc_lookahead=40 / rc=2pass / mbtree=1 / bitrate=2500 / ratetol=1.0 / qcomp=0.60 / qpmin=0 / qpmax=69 / qpstep=4 / cplxblur=20.0 / qblur=0.5 / vbv_maxrate=14000 / vbv_bufsize=14000 / nal_hrd=vbr / filler=0 / ip_ratio=1.40 / aq=1:1.00
Default : Yes
Forced : No
Color range : Limited
Color primaries : BT.709
Transfer characteristics : BT.709
Matrix coefficients : BT.709Audio
ID : 2
Format : MPEG Audio
Format version : Version 1
Format profile : Layer 2
Codec ID : A_MPEG/L2
Codec ID/Hint : MP2
Duration : 27 min 6 s
Bit rate mode : Constant
Bit rate : 256 kb/s
Channel(s) : 2 channels
Sampling rate : 48.0 kHz
Frame rate : 41.667 FPS (1152 SPF)
Compression mode : Lossy
Stream size : 49.7 MiB (9%)
Language : Russian
Default : Yes
Forced : No

Скриншоты

Чтобы скачать этот контент, Вам необходимо:
1. Скачать и установить торрент-клиент [клик для Windows], (для мобильного найдите на Play Маркет).
2. Кликнуть по [Скачать]


Внимание.
Если проверка ВЫ НЕ РОБОТ - не работает, значит Вы используете устаревший браузер.
Установите актуальный браузер и повторно кликните по [Скачать]
Безопасность: торрент-клиент разрешён АВ Касперского.

[asmlocator.ru].t669923.torrent 
Торрент: Зарегистрирован [ 2019-10-10 04:05 ] · 2D448B9AF87F5A8B80B977EE4649C16972F9F11C

Скачать .torrent

Скачать

11 KB

Статус: проверено
Скачан: 0 раз
Размер: 535 MB
terms.php
[Профиль] [ЛС]
Показать сообщения:    
Ответить на тему

Текущее время: 14-Окт 20:08

Часовой пояс: UTC ± 0



Вы не можете начинать темы
Вы не можете отвечать на сообщения
Вы не можете редактировать свои сообщения
Вы не можете удалять свои сообщения
Вы не можете голосовать в опросах
Вы не можете прикреплять файлы к сообщениям
Вы можете скачивать файлы
Верим фактам, а не вранью Путина! Факт, что Правительство ведёт Россию к истреблению.
Так как численность населения падает, даже не смотря на приток эмигрантов!
Русская нация вымирает и вырождается, смешиваясь с эмигрантами!
Факт, что военных и граждан предприятий заставляют голосовать за партию Единая Россия и Путина
ПОД СТРАХОМ УВОЛЬНЕНИЯ!
Нам не нужно Правительство, блокирующее личную жизнь, интернет, нарушающее сохранность данных.
Все эти действия финансируются за счёт народа!