(Rock & Roll, Doo Wop, Rockabilly) [CD] VA - The Golden Age of American Rock \'n\' Roll vol.6 - 1997, FLAC (tracks+.cue), lossless

Ответить на тему
Статистика раздачи
Размер:  255 MB   |    Зарегистрирован:  3 месяца 25 дней   |    Скачан:  0 раз

Полного источника не было: Никогда

 
   
 
 
Автор Сообщение

star21 ®

Пол: Женский

Стаж: 4 года 2 месяца

Сообщений: 551946

Откуда: Екатеринбург

Создавать темы 04-Окт-2019 16:30

[Цитировать]

The Golden Age of American Rock 'n' Roll vol.6 Жанр: Rock & Roll, Doo Wop, Rockabilly
Носитель: CD
Страна-производитель диска (релиза): UK
Год издания: 1997
Издатель (лейбл): Ace ‎
Номер по каталогу: CDCHD 650
Аудиокодек: FLAC (*.flac)
Тип рипа: tracks+.cue
Продолжительность: 01:12:50
Источник: israbox
Наличие сканов в содержимом раздачи: да
Треклист:
01. John Fred - Shirley 01:56
02. The Del-Vikings - Come Go with Me 02:42
03. Joe Bennett & The Sparkletones - Black Slacks 02:07
04. Ronald & Ruby - Lollipop 01:53
05. Harvey & The Moonglows - Ten Commandments of Love 03:42
06. Jimmy Edwards - Love Bug Crawl 02:03
07. Bobby Freeman - Do You Wanna Dance 02:36
08. Noble "Thin Man" Watts & His Rhythm Sparks - Hard Times (The Slop) 02:44
09. The Quotations - Imagination 02:14
10. The Pentagons - I Wonder (If Your Love Will Ever Belong to Me) 02:25
11. The El Dorados - At My Front Door 02:38
12. The Falcons - You're So Fine 02:30
13. The Wailers - Tall Cool One 02:27
14. Johnny Restivo - The Shape I'm In 02:05
15. The Elegants - Little Star 02:43
16. Clyde McPhatter - Lover Please 02:00
17. The Sevilles - Charlena 02:52
18. Johnny Ace - Pledging My Love 02:32
19. Bobby Hendricks - Itchy Twitchy Feeling 02:31
20. Eddie Cooley & The Dimples - Priscilla 02:32
21. The Delacardos - Hold Back the Tears 02:05
22. Gene Allison - You Can Make It If You Try 02:10
23. Ivan - Real Wild Child 02:22
24. The Stompers - Quarter to Four Stomp 02:09
25. Huey "Piano" Smith & The Clowns - Don't You Just Know It 02:33
26. Ricky Nelson - I'm Walkin' 02:01
27. Little Bill & The Bluenotes - I Love an Angel 02:52
28. The Royal Teens - Short Shorts 02:38
29. Bunker Hill - Hide and Go Seek (Part 1) 02:26
30. The Rivingtons - Papa-Oom-Mow-Mow 02:22

Лог создания рипа

Exact Audio Copy V1.0 beta 3 from 29. August 2011EAC extraction logfile from 8. August 2012, 0:58Various / The Golden Age Of American Rock 'N' Roll Volume 6Used drive  : Optiarc DVD RW AD-7240S   Adapter: 0  ID: 0Read mode               : SecureUtilize accurate stream : YesDefeat audio cache      : YesMake use of C2 pointers : NoRead offset correction                      : 48Overread into Lead-In and Lead-Out          : NoFill up missing offset samples with silence : YesDelete leading and trailing silent blocks   : NoNull samples used in CRC calculations       : YesUsed interface                              : Native Win32 interface for Win NT & 2000Gap handling                                : Appended to previous trackUsed output format              : User Defined EncoderSelected bitrate                : 896 kBit/sQuality                         : HighAdd ID3 tag                     : NoCommand line compressor         : C:\Program Files\Exact Audio Copy\FLAC\FLAC.EXEAdditional command line options : -8 -V -T "ARTIST=%artist%" -T "TITLE=%title%" -T "ALBUM=%albumtitle%" -T "DATE=%year%" -T "TRACKNUMBER=%tracknr%" -T "GENRE=%genre%" -T "PERFORMER=%albuminterpret%" -T "COMPOSER=%composer%" %haslyrics%--tag-from-file=LYRICS="%lyricsfile%"%haslyrics% -T "ALBUMARTIST=%albumartist%" -T "DISCNUMBER=%cdnumber%" -T "TOTALDISCS=%totalcds%" -T "TOTALTRACKS=%numtracks%" -T "COMMENT=%comment%" %source% -o %dest%TOC of the extracted CD     Track |   Start  |  Length  | Start sector | End sector    ---------------------------------------------------------        1  |  0:00.00 |  1:56.12 |         0    |     8711        2  |  1:56.12 |  2:42.53 |      8712    |    20914        3  |  4:38.65 |  2:07.15 |     20915    |    30454        4  |  6:46.05 |  1:53.07 |     30455    |    38936        5  |  8:39.12 |  3:42.45 |     38937    |    55631        6  | 12:21.57 |  2:03.35 |     55632    |    64891        7  | 14:25.17 |  2:36.25 |     64892    |    76616        8  | 17:01.42 |  2:44.15 |     76617    |    88931        9  | 19:45.57 |  2:14.28 |     88932    |    99009       10  | 22:00.10 |  2:25.05 |     99010    |   109889       11  | 24:25.15 |  2:38.70 |    109890    |   121809       12  | 27:04.10 |  2:30.35 |    121810    |   133094       13  | 29:34.45 |  2:27.40 |    133095    |   144159       14  | 32:02.10 |  2:05.57 |    144160    |   153591       15  | 34:07.67 |  2:43.68 |    153592    |   165884       16  | 36:51.60 |  2:00.00 |    165885    |   174884       17  | 38:51.60 |  2:52.05 |    174885    |   187789       18  | 41:43.65 |  2:32.10 |    187790    |   199199       19  | 44:16.00 |  2:31.42 |    199200    |   210566       20  | 46:47.42 |  2:32.65 |    210567    |   222031       21  | 49:20.32 |  2:05.08 |    222032    |   231414       22  | 51:25.40 |  2:10.60 |    231415    |   241224       23  | 53:36.25 |  2:22.07 |    241225    |   251881       24  | 55:58.32 |  2:09.43 |    251882    |   261599       25  | 58:08.00 |  2:33.20 |    261600    |   273094       26  | 60:41.20 |  2:01.40 |    273095    |   282209       27  | 62:42.60 |  2:52.67 |    282210    |   295176       28  | 65:35.52 |  2:38.23 |    295177    |   307049       29  | 68:14.00 |  2:26.35 |    307050    |   318034       30  | 70:40.35 |  2:22.40 |    318035    |   328724Track  1     Filename F:\Torrents\VA - The Golden Age Of American Rock 'N' Roll Volume 6 (1997) FLAC\01. John Fred - Shirley.wav     Pre-gap length  0:00:02.00     Peak level 96.6 %     Extraction speed 1.7 X     Track quality 99.9 %     Test CRC 2293869B     Copy CRC 2293869B     Accurately ripped (confidence 2)  [209E48D2]  (AR v1)     Copy OKTrack  2     Filename F:\Torrents\VA - The Golden Age Of American Rock 'N' Roll Volume 6 (1997) FLAC\02. The Dell-Vikings - Come Go With Me.wav     Pre-gap length  0:00:02.62     Peak level 98.9 %     Extraction speed 2.4 X     Track quality 100.0 %     Test CRC 8944BDE5     Copy CRC 8944BDE5     Cannot be verified as accurate (confidence 4)  [6E4F7324], AccurateRip returned [AB16F9E9]  (AR v2)     Copy OKTrack  3     Filename F:\Torrents\VA - The Golden Age Of American Rock 'N' Roll Volume 6 (1997) FLAC\03. Joe Bennett & The Sparkletones - Black Slacks.wav     Pre-gap length  0:00:02.60     Peak level 99.0 %     Extraction speed 2.4 X     Track quality 100.0 %     Test CRC 3B61B323     Copy CRC 3B61B323     Accurately ripped (confidence 2)  [232A9B22]  (AR v1)     Copy OKTrack  4     Filename F:\Torrents\VA - The Golden Age Of American Rock 'N' Roll Volume 6 (1997) FLAC\04. Ronald & Ruby - Lollipop.wav     Pre-gap length  0:00:02.63     Peak level 99.8 %     Extraction speed 2.5 X     Track quality 100.0 %     Test CRC BC834034     Copy CRC BC834034     Accurately ripped (confidence 2)  [2742709F]  (AR v1)     Copy OKTrack  5     Filename F:\Torrents\VA - The Golden Age Of American Rock 'N' Roll Volume 6 (1997) FLAC\05. Harvey & The Moonglows - Ten Commandments Of Love.wav     Pre-gap length  0:00:03.17     Peak level 99.8 %     Extraction speed 3.0 X     Track quality 100.0 %     Test CRC 59D5FF12     Copy CRC 59D5FF12     Accurately ripped (confidence 2)  [F95353F8]  (AR v1)     Copy OKTrack  6     Filename F:\Torrents\VA - The Golden Age Of American Rock 'N' Roll Volume 6 (1997) FLAC\06. Jimmy Edwards - Love Bug Crawl.wav     Pre-gap length  0:00:02.65     Peak level 99.9 %     Extraction speed 2.3 X     Track quality 99.9 %     Test CRC 7520807A     Copy CRC 7520807A     Accurately ripped (confidence 2)  [1731CB09]  (AR v1)     Copy OKTrack  7     Filename F:\Torrents\VA - The Golden Age Of American Rock 'N' Roll Volume 6 (1997) FLAC\07. Bobby Freeman - Do You Want To Dance.wav     Pre-gap length  0:00:02.65     Peak level 99.8 %     Extraction speed 2.5 X     Track quality 99.9 %     Test CRC 3C5293AA     Copy CRC 3C5293AA     Accurately ripped (confidence 2)  [DC45933C]  (AR v1)     Copy OKTrack  8     Filename F:\Torrents\VA - The Golden Age Of American Rock 'N' Roll Volume 6 (1997) FLAC\08. Noble Thin Man Watts & His Rhythm Sparks - Hard Times (The Slop).wav     Pre-gap length  0:00:03.15     Peak level 99.8 %     Extraction speed 3.2 X     Track quality 100.0 %     Test CRC 597988BA     Copy CRC 597988BA     Accurately ripped (confidence 2)  [736B70D0]  (AR v1)     Copy OKTrack  9     Filename F:\Torrents\VA - The Golden Age Of American Rock 'N' Roll Volume 6 (1997) FLAC\09. The Quotations - Imagination.wav     Pre-gap length  0:00:02.65     Peak level 99.8 %     Extraction speed 3.1 X     Track quality 100.0 %     Test CRC 1A0DB21C     Copy CRC 1A0DB21C     Accurately ripped (confidence 2)  [714B6436]  (AR v1)     Copy OKTrack 10     Filename F:\Torrents\VA - The Golden Age Of American Rock 'N' Roll Volume 6 (1997) FLAC\10. The Pentagons - I Wonder (If Your Love Will Ever Belong To Me).wav     Pre-gap length  0:00:02.65     Peak level 90.2 %     Extraction speed 2.8 X     Track quality 99.9 %     Test CRC 8FD1EE05     Copy CRC 8FD1EE05     Accurately ripped (confidence 2)  [2FCBE819]  (AR v1)     Copy OKTrack 11     Filename F:\Torrents\VA - The Golden Age Of American Rock 'N' Roll Volume 6 (1997) FLAC\11. The El Dorados - At My Front Door.wav     Pre-gap length  0:00:02.68     Peak level 99.9 %     Extraction speed 3.5 X     Track quality 100.0 %     Test CRC 28A42937     Copy CRC 28A42937     Accurately ripped (confidence 2)  [5FFD4AF4]  (AR v1)     Copy OKTrack 12     Filename F:\Torrents\VA - The Golden Age Of American Rock 'N' Roll Volume 6 (1997) FLAC\12. The Falcons - You're So Fine.wav     Pre-gap length  0:00:03.08     Peak level 99.9 %     Extraction speed 3.6 X     Track quality 100.0 %     Test CRC 7DC42EF7     Copy CRC 7DC42EF7     Accurately ripped (confidence 2)  [F9E50252]  (AR v1)     Copy OKTrack 13     Filename F:\Torrents\VA - The Golden Age Of American Rock 'N' Roll Volume 6 (1997) FLAC\13. The Wailers - Tall Cool One.wav     Pre-gap length  0:00:03.43     Peak level 99.8 %     Extraction speed 3.6 X     Track quality 100.0 %     Test CRC 05D9BE89     Copy CRC 05D9BE89     Accurately ripped (confidence 2)  [CF8B9E2F]  (AR v1)     Copy OKTrack 14     Filename F:\Torrents\VA - The Golden Age Of American Rock 'N' Roll Volume 6 (1997) FLAC\14. Johnny Restivo - The Shape I'm In.wav     Pre-gap length  0:00:02.23     Peak level 67.8 %     Extraction speed 3.5 X     Track quality 100.0 %     Test CRC 441465F6     Copy CRC 441465F6     Accurately ripped (confidence 2)  [30CA8A11]  (AR v1)     Copy OKTrack 15     Filename F:\Torrents\VA - The Golden Age Of American Rock 'N' Roll Volume 6 (1997) FLAC\15. The Elegants - Little Star.wav     Pre-gap length  0:00:03.72     Peak level 99.8 %     Extraction speed 3.8 X     Track quality 100.0 %     Test CRC 4574D898     Copy CRC 4574D898     Accurately ripped (confidence 2)  [F43FD767]  (AR v1)     Copy OKTrack 16     Filename F:\Torrents\VA - The Golden Age Of American Rock 'N' Roll Volume 6 (1997) FLAC\16. Clyde McPhatter - Lover Please.wav     Pre-gap length  0:00:02.60     Peak level 93.8 %     Extraction speed 3.7 X     Track quality 100.0 %     Test CRC BFD34770     Copy CRC BFD34770     Accurately ripped (confidence 2)  [4198AAEC]  (AR v1)     Copy OKTrack 17     Filename F:\Torrents\VA - The Golden Age Of American Rock 'N' Roll Volume 6 (1997) FLAC\17. The Sevilles - Charlena.wav     Pre-gap length  0:00:02.60     Peak level 99.8 %     Extraction speed 4.1 X     Track quality 100.0 %     Test CRC D79E3C72     Copy CRC D79E3C72     Accurately ripped (confidence 2)  [B56CD1DF]  (AR v1)     Copy OKTrack 18     Filename F:\Torrents\VA - The Golden Age Of American Rock 'N' Roll Volume 6 (1997) FLAC\18. Johnny Ace - Pledging My Love.wav     Pre-gap length  0:00:03.60     Peak level 92.5 %     Extraction speed 4.1 X     Track quality 100.0 %     Test CRC 55302A7C     Copy CRC 55302A7C     Accurately ripped (confidence 2)  [F97CA33B]  (AR v1)     Copy OKTrack 19     Filename F:\Torrents\VA - The Golden Age Of American Rock 'N' Roll Volume 6 (1997) FLAC\19. Bobby Hendricks - Itchy Twitchy Feeling.wav     Pre-gap length  0:00:04.00     Peak level 93.0 %     Extraction speed 4.2 X     Track quality 100.0 %     Test CRC 2FA0D607     Copy CRC 2FA0D607     Accurately ripped (confidence 2)  [95B65092]  (AR v1)     Copy OKTrack 20     Filename F:\Torrents\VA - The Golden Age Of American Rock 'N' Roll Volume 6 (1997) FLAC\20. Eddie Cooley & The Dimples - Priscilla.wav     Pre-gap length  0:00:02.72     Peak level 99.8 %     Extraction speed 4.3 X     Track quality 100.0 %     Test CRC E6979166     Copy CRC E6979166     Accurately ripped (confidence 2)  [2E196326]  (AR v1)     Copy OKTrack 21     Filename F:\Torrents\VA - The Golden Age Of American Rock 'N' Roll Volume 6 (1997) FLAC\21. The Delacardos - Hold Back The Tears.wav     Pre-gap length  0:00:02.62     Peak level 99.8 %     Extraction speed 4.1 X     Track quality 100.0 %     Test CRC 3B2B735B     Copy CRC 3B2B735B     Accurately ripped (confidence 2)  [2A9C805C]  (AR v1)     Copy OKTrack 22     Filename F:\Torrents\VA - The Golden Age Of American Rock 'N' Roll Volume 6 (1997) FLAC\22. Gene Allison - You Can Make It If You Try.wav     Pre-gap length  0:00:03.38     Peak level 99.8 %     Extraction speed 3.4 X     Track quality 99.9 %     Test CRC A0E3FE01     Copy CRC A0E3FE01     Accurately ripped (confidence 2)  [454ED5C1]  (AR v1)     Copy OKTrack 23     Filename F:\Torrents\VA - The Golden Age Of American Rock 'N' Roll Volume 6 (1997) FLAC\23. Ivan - Real Wild Child.wav     Pre-gap length  0:00:02.58     Peak level 99.1 %     Extraction speed 3.6 X     Track quality 99.9 %     Test CRC B25418E6     Copy CRC B25418E6     Accurately ripped (confidence 2)  [AE0E0B40]  (AR v1)     Copy OKTrack 24     Filename F:\Torrents\VA - The Golden Age Of American Rock 'N' Roll Volume 6 (1997) FLAC\24. The Stompers - Quarter To Four Stomp.wav     Pre-gap length  0:00:03.10     Peak level 99.0 %     Extraction speed 4.4 X     Track quality 100.0 %     Test CRC 0557DBBA     Copy CRC 0557DBBA     Accurately ripped (confidence 2)  [3D6883FA]  (AR v1)     Copy OKTrack 25     Filename F:\Torrents\VA - The Golden Age Of American Rock 'N' Roll Volume 6 (1997) FLAC\25. Huey Piano Smith & The Clowns - Don't You Just Know It.wav     Pre-gap length  0:00:02.73     Peak level 98.5 %     Extraction speed 4.5 X     Track quality 100.0 %     Test CRC 2CAF09CB     Copy CRC 2CAF09CB     Accurately ripped (confidence 2)  [0D07C903]  (AR v1)     Copy OKTrack 26     Filename F:\Torrents\VA - The Golden Age Of American Rock 'N' Roll Volume 6 (1997) FLAC\26. Ricky Nelson - I'm Walkin'.wav     Pre-gap length  0:00:02.38     Peak level 99.7 %     Extraction speed 4.3 X     Track quality 100.0 %     Test CRC B052B45D     Copy CRC B052B45D     Accurately ripped (confidence 2)  [C9252829]  (AR v1)     Copy OKTrack 27     Filename F:\Torrents\VA - The Golden Age Of American Rock 'N' Roll Volume 6 (1997) FLAC\27. Little Bill & The Bluenotes - I Love An Angel.wav     Pre-gap length  0:00:03.63     Peak level 88.5 %     Extraction speed 4.8 X     Track quality 100.0 %     Test CRC E1D45488     Copy CRC E1D45488     Accurately ripped (confidence 2)  [18BA3B31]  (AR v1)     Copy OKTrack 28     Filename F:\Torrents\VA - The Golden Age Of American Rock 'N' Roll Volume 6 (1997) FLAC\28. The Royal Teens - Short Shorts.wav     Pre-gap length  0:00:03.02     Peak level 99.9 %     Extraction speed 4.8 X     Track quality 100.0 %     Test CRC 3DAE7343     Copy CRC 3DAE7343     Accurately ripped (confidence 2)  [51B25203]  (AR v1)     Copy OKTrack 29     Filename F:\Torrents\VA - The Golden Age Of American Rock 'N' Roll Volume 6 (1997) FLAC\29. Bunker Hill - Hide And Go Seek (Part 1).wav     Pre-gap length  0:00:03.10     Peak level 99.8 %     Extraction speed 4.8 X     Track quality 100.0 %     Test CRC 85781533     Copy CRC 85781533     Accurately ripped (confidence 2)  [9AB0DBD6]  (AR v1)     Copy OKTrack 30     Filename F:\Torrents\VA - The Golden Age Of American Rock 'N' Roll Volume 6 (1997) FLAC\30. The Rivingtons - Papa-Oom-Mow-Mow.wav     Pre-gap length  0:00:02.38     Peak level 99.8 %     Extraction speed 4.9 X     Track quality 100.0 %     Test CRC F8653594     Copy CRC F8653594     Accurately ripped (confidence 2)  [DD7ACEBB]  (AR v1)     Copy OK29 track(s) accurately ripped 1 track(s) could not be verified as accurateSome tracks could not be verified as accurateNo errors occurredEnd of status report---- CUETools DB Plugin V2.1.3[CTDB TOCID: 8Vss1AD7BfGxUm5ozEVWUrQP42Q-] disk not present in database, Submit result: 8Vss1AD7BfGxUm5ozEVWUrQP42Q- has been uploaded==== Log checksum C928F0ADA37524F7BCACEE65B201AB6A7CB85D4EE6220F58D2F33DDB1FE0D66A ====

Содержание индексной карты (.CUE)

REM GENRE "Rock & Roll"REM DATE 1997REM DISCID B1111F1EREM COMMENT "ExactAudioCopy v1.0b3"PERFORMER "Various"TITLE "The Golden Age Of American Rock 'N' Roll Volume 6"FILE "01. John Fred - Shirley.wav" WAVE  TRACK 01 AUDIO    TITLE "Shirley"    PERFORMER "John Fred"    INDEX 01 00:00:00  TRACK 02 AUDIO    TITLE "Come Go With Me"    PERFORMER "The Dell-Vikings"    INDEX 00 01:53:25FILE "02. The Dell-Vikings - Come Go With Me.wav" WAVE    INDEX 01 00:00:00  TRACK 03 AUDIO    TITLE "Black Slacks"    PERFORMER "Joe Bennett & The Sparkletones"    INDEX 00 02:39:68FILE "03. Joe Bennett & The Sparkletones - Black Slacks.wav" WAVE    INDEX 01 00:00:00  TRACK 04 AUDIO    TITLE "Lollipop"    PERFORMER "Ronald & Ruby"    INDEX 00 02:04:27FILE "04. Ronald & Ruby - Lollipop.wav" WAVE    INDEX 01 00:00:00  TRACK 05 AUDIO    TITLE "Ten Commandments Of Love"    PERFORMER "Harvey & The Moonglows"    INDEX 00 01:49:65FILE "05. Harvey & The Moonglows - Ten Commandments Of Love.wav" WAVE    INDEX 01 00:00:00  TRACK 06 AUDIO    TITLE "Love Bug Crawl"    PERFORMER "Jimmy Edwards"    INDEX 00 03:39:55FILE "06. Jimmy Edwards - Love Bug Crawl.wav" WAVE    INDEX 01 00:00:00  TRACK 07 AUDIO    TITLE "Do You Want To Dance"    PERFORMER "Bobby Freeman"    INDEX 00 02:00:45FILE "07. Bobby Freeman - Do You Want To Dance.wav" WAVE    INDEX 01 00:00:00  TRACK 08 AUDIO    TITLE "Hard Times (The Slop)"    PERFORMER "Noble Thin Man Watts & His Rhythm Sparks"    INDEX 00 02:33:10FILE "08. Noble Thin Man Watts & His Rhythm Sparks - Hard Times (The Slop).wav" WAVE    INDEX 01 00:00:00  TRACK 09 AUDIO    TITLE "Imagination"    PERFORMER "The Quotations"    INDEX 00 02:41:25FILE "09. The Quotations - Imagination.wav" WAVE    INDEX 01 00:00:00  TRACK 10 AUDIO    TITLE "I Wonder (If Your Love Will Ever Belong To Me)"    PERFORMER "The Pentagons"    INDEX 00 02:11:38FILE "10. The Pentagons - I Wonder (If Your Love Will Ever Belong To Me).wav" WAVE    INDEX 01 00:00:00  TRACK 11 AUDIO    TITLE "At My Front Door"    PERFORMER "The El Dorados"    INDEX 00 02:22:12FILE "11. The El Dorados - At My Front Door.wav" WAVE    INDEX 01 00:00:00  TRACK 12 AUDIO    TITLE "You're So Fine"    PERFORMER "The Falcons"    INDEX 00 02:35:62FILE "12. The Falcons - You're So Fine.wav" WAVE    INDEX 01 00:00:00  TRACK 13 AUDIO    TITLE "Tall Cool One"    PERFORMER "The Wailers"    INDEX 00 02:26:67FILE "13. The Wailers - Tall Cool One.wav" WAVE    INDEX 01 00:00:00  TRACK 14 AUDIO    TITLE "The Shape I'm In"    PERFORMER "Johnny Restivo"    INDEX 00 02:25:17FILE "14. Johnny Restivo - The Shape I'm In.wav" WAVE    INDEX 01 00:00:00  TRACK 15 AUDIO    TITLE "Little Star"    PERFORMER "The Elegants"    INDEX 00 02:01:60FILE "15. The Elegants - Little Star.wav" WAVE    INDEX 01 00:00:00  TRACK 16 AUDIO    TITLE "Lover Please"    PERFORMER "Clyde McPhatter"    INDEX 00 02:41:08FILE "16. Clyde McPhatter - Lover Please.wav" WAVE    INDEX 01 00:00:00  TRACK 17 AUDIO    TITLE "Charlena"    PERFORMER "The Sevilles"    INDEX 00 01:57:15FILE "17. The Sevilles - Charlena.wav" WAVE    INDEX 01 00:00:00  TRACK 18 AUDIO    TITLE "Pledging My Love"    PERFORMER "Johnny Ace"    INDEX 00 02:48:20FILE "18. Johnny Ace - Pledging My Love.wav" WAVE    INDEX 01 00:00:00  TRACK 19 AUDIO    TITLE "Itchy Twitchy Feeling"    PERFORMER "Bobby Hendricks"    INDEX 00 02:28:10FILE "19. Bobby Hendricks - Itchy Twitchy Feeling.wav" WAVE    INDEX 01 00:00:00  TRACK 20 AUDIO    TITLE "Priscilla"    PERFORMER "Eddie Cooley & The Dimples"    INDEX 00 02:28:45FILE "20. Eddie Cooley & The Dimples - Priscilla.wav" WAVE    INDEX 01 00:00:00  TRACK 21 AUDIO    TITLE "Hold Back The Tears"    PERFORMER "The Delacardos"    INDEX 00 02:30:03FILE "21. The Delacardos - Hold Back The Tears.wav" WAVE    INDEX 01 00:00:00  TRACK 22 AUDIO    TITLE "You Can Make It If You Try"    PERFORMER "Gene Allison"    INDEX 00 02:01:45FILE "22. Gene Allison - You Can Make It If You Try.wav" WAVE    INDEX 01 00:00:00  TRACK 23 AUDIO    TITLE "Real Wild Child"    PERFORMER "Ivan"    INDEX 00 02:08:02FILE "23. Ivan - Real Wild Child.wav" WAVE    INDEX 01 00:00:00  TRACK 24 AUDIO    TITLE "Quarter To Four Stomp"    PERFORMER "The Stompers"    INDEX 00 02:18:72FILE "24. The Stompers - Quarter To Four Stomp.wav" WAVE    INDEX 01 00:00:00  TRACK 25 AUDIO    TITLE "Don't You Just Know It"    PERFORMER "Huey Piano Smith & The Clowns"    INDEX 00 02:06:45FILE "25. Huey Piano Smith & The Clowns - Don't You Just Know It.wav" WAVE    INDEX 01 00:00:00  TRACK 26 AUDIO    TITLE "I'm Walkin'"    PERFORMER "Ricky Nelson"    INDEX 00 02:30:57FILE "26. Ricky Nelson - I'm Walkin'.wav" WAVE    INDEX 01 00:00:00  TRACK 27 AUDIO    TITLE "I Love An Angel"    PERFORMER "Little Bill & The Bluenotes"    INDEX 00 01:57:52FILE "27. Little Bill & The Bluenotes - I Love An Angel.wav" WAVE    INDEX 01 00:00:00  TRACK 28 AUDIO    TITLE "Short Shorts"    PERFORMER "The Royal Teens"    INDEX 00 02:49:65FILE "28. The Royal Teens - Short Shorts.wav" WAVE    INDEX 01 00:00:00  TRACK 29 AUDIO    TITLE "Hide And Go Seek (Part 1)"    PERFORMER "Bunker Hill"    INDEX 00 02:35:13FILE "29. Bunker Hill - Hide And Go Seek (Part 1).wav" WAVE    INDEX 01 00:00:00  TRACK 30 AUDIO    TITLE "Papa-Oom-Mow-Mow"    PERFORMER "The Rivingtons"    INDEX 00 02:23:72FILE "30. The Rivingtons - Papa-Oom-Mow-Mow.wav" WAVE    INDEX 01 00:00:00

Чтобы скачать этот контент, Вам необходимо:
1. Скачать и установить торрент-клиент [клик для Windows], (для мобильного найдите на Play Маркет).
2. Кликнуть по [Скачать]


Внимание.
Если проверка ВЫ НЕ РОБОТ - не работает, значит Вы используете устаревший браузер.
Установите актуальный браузер и повторно кликните по [Скачать]
Безопасность: торрент-клиент разрешён АВ Касперского.

[asmlocator.ru].t668763.torrent 
Торрент: Зарегистрирован [ 2019-10-04 16:30 ] · DEB17BD141A4ED65C7ECC59696838FAD6C47160C

Скачать .torrent

Скачать

23 KB

Статус: проверено
Скачан: 0 раз
Размер: 255 MB
terms.php
[Профиль] [ЛС]
Показать сообщения:    
Ответить на тему

Текущее время: 29-Янв 19:14

Часовой пояс: UTC ± 0



Вы не можете начинать темы
Вы не можете отвечать на сообщения
Вы не можете редактировать свои сообщения
Вы не можете удалять свои сообщения
Вы не можете голосовать в опросах
Вы не можете прикреплять файлы к сообщениям
Вы можете скачивать файлы
Верим фактам, а не вранью Путина! Факт, что Правительство ведёт Россию к истреблению.
Так как численность населения падает, даже не смотря на приток эмигрантов!
Русская нация вымирает и вырождается, смешиваясь с эмигрантами!
Факт, что военных и граждан предприятий заставляют голосовать за партию Единая Россия и Путина
ПОД СТРАХОМ УВОЛЬНЕНИЯ!
Нам не нужно Правительство, блокирующее личную жизнь, интернет, нарушающее сохранность данных.
Все эти действия финансируются за счёт народа!