Грозовая фантазия / Thunderbolt Fantasy: Touri-ken Yuuki [TV][1-7 из 13][без хардсаба][RUS(int), JAP+SUB][2016, приключения, фэнтези, BDRip] [720p]

Ответить на тему
Статистика раздачи
Размер:  4,89 GB   |    Зарегистрирован:  15 дней   |    Скачан:  0 раз

Полного источника не было: Никогда

 
   
 
 
Автор Сообщение

star21 ®

Пол: Женский

Стаж: 3 года 11 месяцев

Сообщений: 551988

Откуда: Екатеринбург

Создавать темы 29-Сен-2019 06:10

[Цитировать]

Грозовая фантазия / Thunderbolt Fantasy: Touri-ken Yuuki Страна: Япония
Год выпуска: 2016
Жанр: приключения, фэнтези
Тип: ТВ
Продолжительность: 13 эп. по ~25 мин.
Режиссер: Хуан Цян Хуа
Студия: J.C. StaffПеревод: Mike Payne
Озвучание: двухголосое (муж./жен.) Soer, MezIdA
Работа со звуком: Soer
Описание:
Однажды обитатели мира демонов огнём и мечом прошлись по миру людей. То была война Гаснущих Сумерек. Дабы не сгинуть навсегда, люди попросили бессмертных Сянь создать мириады клинков и отправились на решающую битву. Эти клинки — Шэнь Хуэй Мо Се. Легендарное оружие сверхъестественной мощи, позволяющее сражаться с демонами на равных. Этой невероятной силой отродья зла были изгнаны обратно в свою обитель, и на землях людей воцарился мир.
Те немногие Шэнь Хуэй Мо Се, что сохранились после войны, были укрыты в святилищах под присмотром кланов Ху Инь Ши, дабы ужасающая сила могучих клинков никогда не оказалась в руках злодеев.Качество: BDRip | Формат: .mkv | Рип: SFEO-Raws
Видео: AVC, 10 bit, 1280x720, ~4481 Кбит/с, 29.970 fps
Звук (Rus(int)): aac, 183 kbps, 48.0 KHz, 2 ch
Звук (Japanese): aac, 219 kbps, 48 KHz, 2 ch
Субтитры (Russian): ass, встроенные | только надписи (включены по умолчанию)
Субтитры (Russian): ass, встроенные | полный перевод
Хардсаб: отсутствует

Cкриншоты

Список эпизодов


1 "Code of Umbrellas" / "Amagasa no Giri" (雨傘の義理) July 8, 2016
2 "Attack of the Xuán Guǐ Zōng!" /"Shūrai! Genkishu" (襲来! 玄鬼宗) July 15, 2016
3 "The Woman in Night Devil Forest" / "Yoruma no Mori no Onna" (夜魔の森の女) July 22, 2016
4 "The Whereabouts of the Soul Echo Flute" / "Kaireiteki no Yukue" (迴靈笛のゆくえ) July 29, 2016
5 "The Sword Devil, Shā Wú Shēng" / "Kenoni, Setsu Mu Shō" (剣鬼, 殺無生) August 5, 2016
6 "Seven Comrades" / "Nananin Dōshū" (七人同舟) August 12, 2016
7 "Demon Spine Mountains" / "Masekizan" (魔脊山) August 19, 2016
8 "The Enigmatic Gale" / "Ryō Fū Setsujin" (掠風竊塵) August 26, 2016
9 "The Essence of a Sword" / "Ken no Shinzui" (剣の神髄) September 2, 2016
10 "A Thief's Pride" / "Tōzoku no Kyōji" (盗賊の矜恃) September 9, 2016
11 "A Proud Life" / "Hokori Takaki Inochi" (誇り高き命) September 16, 2016
12 "A Blade That Doesn't Cut" / "Setsuwazaru Ha" (切わざる刃) September 23, 2016
13 "A New Duty" / "Aratanaru Shimei" (新たなる使命) September 30, 2016

Отчет MediaInfo

General
Unique ID : 227907354881302557466306816873353860643 (0xAB755C2473781C8498695A5707825623)
Complete name : D:\[DLS] Thunderbolt Fantasy Touri-ken Yuuki [TV] [Soer & MezIdA]\[DLS] Thunderbolt Fantasy Touri-ken Yuuki [TV] - 01 [Soer & MezIdA] [720p BD].mkv
Format : Matroska
Format version : Version 4
File size : 836 MiB
Duration : 23 min 55 s
Overall bit rate : 4 886 kb/s
Encoded date : UTC 2019-08-28 17:53:20
Writing application : mkvmerge v7.6.0 ('Garden of Dreams') 64bit built on Feb 8 2015 13:04:34
Writing library : libebml v1.3.1 + libmatroska v1.4.2Video
ID : 1
Format : AVC
Format/Info : Advanced Video Codec
Format profile : High 10@L3.1
Format settings : CABAC / 5 Ref Frames
Format settings, CABAC : Yes
Format settings, Reference : 5 frames
Codec ID : V_MPEG4/ISO/AVC
Duration : 23 min 55 s
Bit rate : 4 481 kb/s
Width : 1 280 pixels
Height : 720 pixels
Display aspect ratio : 16:9
Frame rate mode : Constant
Frame rate : 29.970 (30000/1001) FPS
Color space : YUV
Chroma subsampling : 4:2:0
Bit depth : 10 bits
Scan type : Progressive
Bits/(Pixel*Frame) : 0.162
Stream size : 767 MiB (92%)
Writing library : x264 core 148 r2638 7599210
Encoding settings : cabac=1 / ref=5 / deblock=1:-1:-1 / analyse=0x3:0x133 / me=umh / subme=10 / psy=1 / psy_rd=0.60:0.20 / mixed_ref=1 / me_range=64 / chroma_me=1 / trellis=2 / 8x8dct=1 / cqm=0 / deadzone=21,11 / fast_pskip=0 / chroma_qp_offset=-1 / threads=18 / lookahead_threads=2 / sliced_threads=0 / nr=0 / decimate=1 / interlaced=0 / bluray_compat=0 / constrained_intra=0 / bframes=5 / b_pyramid=2 / b_adapt=2 / b_bias=0 / direct=3 / weightb=1 / open_gop=0 / weightp=2 / keyint=300 / keyint_min=27 / scenecut=40 / intra_refresh=0 / rc_lookahead=50 / rc=crf / mbtree=1 / crf=22.0 / qcomp=0.70 / qpmin=0 / qpmax=81 / qpstep=4 / ip_ratio=1.40 / aq=1:1.00
Default : Yes
Forced : NoAudio #1
ID : 2
Format : AAC LC
Format/Info : Advanced Audio Codec Low Complexity
Codec ID : A_AAC-2
Duration : 23 min 55 s
Bit rate : 183 kb/s
Channel(s) : 2 channels
Channel layout : L R
Sampling rate : 48.0 kHz
Frame rate : 46.875 FPS (1024 SPF)
Compression mode : Lossy
Stream size : 31.3 MiB (4%)
Title : [Soer & MezIdA]
Language : Russian
Default : Yes
Forced : YesAudio #2
ID : 3
Format : AAC LC
Format/Info : Advanced Audio Codec Low Complexity
Codec ID : A_AAC-2
Duration : 23 min 55 s
Bit rate : 219 kb/s
Channel(s) : 2 channels
Channel layout : L R
Sampling rate : 48.0 kHz
Frame rate : 46.875 FPS (1024 SPF)
Compression mode : Lossy
Stream size : 37.4 MiB (4%)
Title : Original
Language : Japanese
Default : No
Forced : NoText #1
ID : 4
Format : ASS
Codec ID : S_TEXT/ASS
Codec ID/Info : Advanced Sub Station Alpha
Duration : 17 min 11 s
Bit rate : 3 b/s
Count of elements : 3
Compression mode : Lossless
Stream size : 389 Bytes (0%)
Title : Надписи
Language : Russian
Default : Yes
Forced : YesText #2
ID : 5
Format : ASS
Codec ID : S_TEXT/ASS
Codec ID/Info : Advanced Sub Station Alpha
Duration : 23 min 44 s
Bit rate : 171 b/s
Count of elements : 248
Compression mode : Lossless
Stream size : 29.9 KiB (0%)
Title : Полные субтитры
Language : Russian
Default : No
Forced : No

Отличия от других раздач

https://rutracker.org/forum/viewtopic.php?t=5343538 - Наличие озвучки
https://rutracker.org/forum/viewtopic.php?t=5356467 - Альтернативная озвучка

Чтобы скачать этот контент, Вам необходимо:
1. Скачать и установить торрент-клиент [клик для Windows], (для мобильного найдите на Play Маркет).
2. Кликнуть по [Скачать]


Внимание.
Если проверка ВЫ НЕ РОБОТ - не работает, значит Вы используете устаревший браузер.
Установите актуальный браузер и повторно кликните по [Скачать]
Безопасность: торрент-клиент разрешён АВ Касперского.

[asmlocator.ru].t666721.torrent 
Торрент: Зарегистрирован [ 2019-09-29 06:10 ] · 5A9535CCEE161D33C9BEEA88900E8F4C8132E83B

Скачать .torrent

Скачать

13 KB

Статус: проверено
Скачан: 0 раз
Размер: 4,89 GB
terms.php
[Профиль] [ЛС]
Показать сообщения:    
Ответить на тему

Текущее время: 14-Окт 20:09

Часовой пояс: UTC ± 0



Вы не можете начинать темы
Вы не можете отвечать на сообщения
Вы не можете редактировать свои сообщения
Вы не можете удалять свои сообщения
Вы не можете голосовать в опросах
Вы не можете прикреплять файлы к сообщениям
Вы можете скачивать файлы
Верим фактам, а не вранью Путина! Факт, что Правительство ведёт Россию к истреблению.
Так как численность населения падает, даже не смотря на приток эмигрантов!
Русская нация вымирает и вырождается, смешиваясь с эмигрантами!
Факт, что военных и граждан предприятий заставляют голосовать за партию Единая Россия и Путина
ПОД СТРАХОМ УВОЛЬНЕНИЯ!
Нам не нужно Правительство, блокирующее личную жизнь, интернет, нарушающее сохранность данных.
Все эти действия финансируются за счёт народа!