Освобождение шпионов / Release the Spyce [TV] [12 из 12] [Без хардсаба] [RUS(ext), JAP+SUB] [2018, Экшен, Школа, Приключения, BDRip] [1080p]

Ответить на тему
Статистика раздачи
Размер:  10.68 GB   |    Зарегистрирован:  4 месяца 24 дня   |    Скачан:  0 раз

Полного источника не было: Никогда

 
   
 
 
Автор Сообщение

star21 ®

Пол: Женский

Стаж: 4 года 3 месяца

Сообщений: 551946

Откуда: Екатеринбург

Создавать темы 29-Сен-2019 06:10

[Цитировать]

Страна: Япония
Год выпуска: 2018
Жанр: Экшен, Школа, Приключения
Тип: TV
Продолжительность: 12 эп. по ~ 25 мин.
Режиссер: Акира Сато
Студия: Lay-duceОзвучка:
1. Студия KANSAI (многоголосая, закадровая) — Сэмпл
Субтитры:
1. Elven_tankman & Shifroval
Переводчик: Elven_tankman
Редактор: Shifroval
Описание: История о самой обычной девочке по имени Момо, которая посещает старшую школу в городе Сорасаки. Но обычная она только на первый взгляд: девушка является членом «Цукикагэ» — тайного разведывательного агентства, которое специализируется на защите людей. Будучи новым членом агентства, она работает вместе со своими коллегами, включая наставницу Юки и друзей. Совместными усилиями они пытаются восстановить на улицах родного города порядок.Качество: BDRip
Тип релиза: Без хардсаба, без линковки
Формат видео: MKV
Автор рипа: Snow-Raws
Видео: HEVC, 1920x1080, 3747 kbps, 23,976fps, 10 bit (есть чаптеры)
Аудио: FLAC, 1481 kbps, 48 Hz, 2 ch, JAP (в составе контейнера)
Аудио 1: AC3, 192 kbps, 48 Hz, 2 ch, RUS (внешним файлом)
Субтитры 1: ASS, RUS (внешним файлом)Раздача будет обновлена, будут добавлены субтитры от Risens Team и AniPlay.

Подробные тех. данные

ОбщееУникальный идентификатор                 : 202179923092352277229927920795850180513 (0x981A6FD25ECFFB6285D8EBAE47ED07A1)Полное имя                               : E:\RUTRACKER\[Snow-Raws] Release the Spyce\Release the Spyce - 01.mkvФормат                                   : MatroskaВерсия формата                           : Version 4Размер файла                             : 918 МбайтПродолжительность                        : 24 м. 32 с.Режим общего битрейта                    : ПеременныйОбщий поток                              : 5230 Кбит/секДата кодирования                         : UTC 2019-06-20 23:35:53Программа кодирования                    : mkvmerge v9.4.2 ('So High') 64bitБиблиотека кодирования                   : libebml v1.3.4 + libmatroska v1.4.5ВидеоИдентификатор                            : 1Формат                                   : HEVCФормат/Информация                        : High Efficiency Video CodingПрофиль формата                          : Main 10@L4@MainИдентификатор кодека                     : V_MPEGH/ISO/HEVCПродолжительность                        : 24 м. 32 с.Битрейт                                  : 3747 Кбит/секШирина                                   : 1920 пикселейВысота                                   : 1080 пикселейСоотношение сторон                       : 16:9Режим частоты кадров                     : ПостоянныйЧастота кадров                           : 23,976 (24000/1001) кадра/секЦветовое пространство                    : YUVСубдискретизация насыщенности            : 4:2:0Битовая глубина                          : 10 битБит/(Пиксели*Кадры)                      : 0.075Размер потока                            : 658 Мбайт (72%)Библиотека кодирования                   : x265 0.0:[Cygwin][GCC 6.4.0][64 bit] 10bitНастройки программы                      : encoder=x265_kmod_2.6 / frame-threads=3 / wpp / no-pmode / no-pme / no-psnr / no-ssim / log-level=2 / input-csp=1 / input-res=1920x1080 / interlace=0 / total-frames=0 / level-idc=0 / high-tier=1 / uhd-bd=0 / ref=4 / no-allow-non-conformance / no-repeat-headers / annexb / no-aud / no-hrd / info / hash=0 / no-temporal-layers / no-open-gop / min-keyint=1 / keyint=324 / bframes=8 / b-adapt=2 / b-pyramid / bframe-bias=0 / rc-lookahead=80 / lookahead-slices=0 / scenecut=40 / no-intra-refresh / ctu=32 / min-cu-size=8 / no-rect / no-amp / max-tu-size=32 / tu-inter-depth=2 / tu-intra-depth=2 / limit-tu=2 / rdoq-level=2 / dynamic-rd=0.00 / no-ssim-rd / signhide / no-tskip / nr-intra=0 / nr-inter=0 / no-constrained-intra / no-strong-intra-smoothing / max-merge=3 / limit-refs=2 / no-limit-modes / me=3 / subme=4 / merange=57 / temporal-mvp / weightp / no-weightb / no-analyze-src-pics / deblock=0:0 / no-sao / no-sao-non-deblock / rd=6 / no-early-skip / rskip / no-fast-intra / no-tskip-fast / no-cu-lossless / no-b-intra / no-splitrd-skip / rdpenalty=0 / psy-rd=2.00 / psy-rdoq=0.90 / no-rd-refine / analysis-reuse-mode=0 / no-lossless / cbqpoffs=-1 / crqpoffs=-1 / rc=crf / crf=15.7 / qcomp=0.65 / qpstep=4 / stats-write=0 / stats-read=0 / ipratio=1.40 / pbratio=1.30 / aq-mode=3 / aq-strength=0.90 / cutree / zone-count=0 / no-strict-cbr / qg-size=32 / no-rc-grain / qpmax=69 / qpmin=0 / no-const-vbv / sar=0 / overscan=0 / videoformat=5 / range=0 / colorprim=2 / transfer=2 / colormatrix=1 / chromaloc=0 / display-window=0 / max-cll=0,0 / min-luma=0 / max-luma=1023 / log2-max-poc-lsb=8 / vui-timing-info / vui-hrd-info / slices=1 / opt-qp-pps / opt-ref-list-length-pps / no-multi-pass-opt-rps / scenecut-bias=0.05 / no-opt-cu-delta-qp / no-aq-motion / no-hdr / no-hdr-opt / no-dhdr10-opt / analysis-reuse-level=5 / scale-factor=0 / refine-intra=0 / refine-inter=0 / refine-mv=0 / no-limit-sao / ctu-info=0 / no-lowpass-dct / refine-mv-type=0 / copy-pic=1Язык                                     : JapaneseDefault                                  : ДаForced                                   : НетЦветовой диапазон                        : LimitedКоэффициенты матрицы                     : BT.709АудиоИдентификатор                            : 2Формат                                   : FLACФормат/Информация                        : Free Lossless Audio CodecИдентификатор кодека                     : A_FLACПродолжительность                        : 24 м. 32 с.Вид битрейта                             : ПеременныйБитрейт                                  : 1481 Кбит/секКаналы                                   : 2 каналаChannelLayout                            : L RЧастота                                  : 48,0 КГцЧастота кадров                           : 11,719 кадров/сек (4096 SPF)Битовая глубина                          : 24 битМетод сжатия                             : Без потерьРазмер потока                            : 260 Мбайт (28%)Библиотека кодирования                   : libFLAC 1.3.2 (UTC 2017-01-01)Язык                                     : JapaneseDefault                                  : ДаForced                                   : НетМеню00:00:00.000                             : en:00:00:00.00000:04:28.268                             : en:00:04:28.26800:13:18.005                             : en:00:13:18.00500:22:03.989                             : en:00:22:03.98900:23:33.954                             : en:00:23:33.95400:24:14.995                             : en:00:24:14.995

Список эпизодов

01. Golden Spirits
02. First Challenge
03. Moryo
04. Never Say Never Together
05. Phantom Protocol
06. The Rewards of Friendship
07. From Hatsume with Love
08. Intelligence on Organization N
09. Destiny Group
10. No Response from Sorasaki
11. Operation Gekkako
12. Tsukikage Is Forever

Отличия

https://rutracker.org/forum/viewtopic.php?t=5625572 — BDRip, 1080p, наличие озвучка
https://rutracker.org/forum/viewtopic.php?t=5734139 — BDRip, наличие озвучка

Скриншоты

Чтобы скачать этот контент, Вам необходимо:
1. Скачать и установить торрент-клиент [клик для Windows], (для мобильного найдите на Play Маркет).
2. Кликнуть по [Скачать]


Внимание.
Если проверка ВЫ НЕ РОБОТ - не работает, значит Вы используете устаревший браузер.
Установите актуальный браузер и повторно кликните по [Скачать]
Безопасность: торрент-клиент разрешён АВ Касперского.

[asmlocator.ru].t666719.torrent 
Торрент: Зарегистрирован [ 2019-09-29 06:10 ] · D12F94602C4EBFE550C4AB6D5C59485715E407A2

Скачать .torrent

Скачать

30 KB

Статус: проверено
Скачан: 0 раз
Размер: 10.68 GB
terms.php
[Профиль] [ЛС]
Показать сообщения:    
Ответить на тему

Текущее время: 24-Фев 00:42

Часовой пояс: UTC ± 0



Вы не можете начинать темы
Вы не можете отвечать на сообщения
Вы не можете редактировать свои сообщения
Вы не можете удалять свои сообщения
Вы не можете голосовать в опросах
Вы не можете прикреплять файлы к сообщениям
Вы можете скачивать файлы
Верим фактам, а не вранью Путина! Факт, что Правительство ведёт Россию к истреблению.
Так как численность населения падает, даже не смотря на приток эмигрантов!
Русская нация вымирает и вырождается, смешиваясь с эмигрантами!
Факт, что военных и граждан предприятий заставляют голосовать за партию Единая Россия и Путина
ПОД СТРАХОМ УВОЛЬНЕНИЯ!
Нам не нужно Правительство, блокирующее личную жизнь, интернет, нарушающее сохранность данных.
Все эти действия финансируются за счёт народа!