Царь Скорпионов: Книга Душ / The Scorpion King: Book of Souls (Дон Майкл Пол / Don Michael Paul) [2018, США, Фэнтези, боевик, приключения, BDRip 1080p] Dub (Че!) + Original Eng + Sub Eng

Ответить на тему
Статистика раздачи
Размер:  7,79 GB   |    Зарегистрирован:  18 дней   |    Скачан:  0 раз

Полного источника не было: Никогда

 
   
 
 
Автор Сообщение

star21 ®

Пол: Женский

Стаж: 3 года 11 месяцев

Сообщений: 551988

Откуда: Екатеринбург

Создавать темы 25-Сен-2019 23:25

[Цитировать]

Царь Скорпионов: Книга Душ / The Scorpion King: Book of Souls Страна: США
Жанр: Фэнтези, боевик, приключения
Год выпуска: 2018
Продолжительность: 01:41:51Перевод: Профессиональный (дублированный) Че!
Субтитры: английские
Оригинальная аудиодорожка: английскийРежиссер: Дон Майкл Пол / Don Michael PaulВ ролях: Зэк МакГоун, Нэйтан Джонс, Питер Менса, Кэти Луиз Саундерс, Перл Туси, Ховард Чарльз, Нг Мэйлин, Инге Бекманн, Ризель Янук, Стефани ШилдкнектОписание: Царь Скорпионов объединяется с женщином-воином Талой, сестрой Короля Нубии. Вместе они ищут легендарную Книгу Душ. Эта книга поможет им положить конец господству Лорда Войны.Сэмпл: http://multi-up.com/1242052Качество видео: BDRip 1080p
Формат видео: mkvВидео: AVC, 1920x1080 (16:9), 23.976 fps, 9 244 Kbps (0.186 bit/pixel)
Аудио: AC-3, 48.0 KHz, 2 ch, 192 Kbps, CBR - русский
Аудио 2: DTS, 48.0 KHz, 6 ch, 1 510 Kbps, CBR - английский

MediaInfo

ОбщееУникальный идентификатор                 : 186842101474535902059874289262478776100 (0x8C907AD4D771901585CB0F59FBC85724)Полное имя                               : I:\The.Scorpion.King.Book.of.Souls.2018.1080p.BluRay.x264-NODLABS.mkvФормат                                   : MatroskaВерсия формата                           : Version 2Размер файла                             : 7,79 ГбайтПродолжительность                        : 1 ч. 41 м.Общий поток                              : 10,9 Мбит/секНазвание фильма                          : Царь Скорпионов: Книга Душ / The Scorpion King: Book of Souls (2018)Дата кодирования                         : UTC 2019-09-20 17:08:27Программа кодирования                    : mkvmerge v8.2.0 ('World of Adventure') 64bitБиблиотека кодирования                   : libebml v1.3.1 + libmatroska v1.4.2ВидеоИдентификатор                            : 1Формат                                   : AVCФормат/Информация                        : Advanced Video CodecПрофиль формата                          : High@L4.1Настройки формата                        : CABAC / 4 Ref FramesПараметр CABAC формата                   : ДаПараметр RefFrames формата               : 4 кадраИдентификатор кодека                     : V_MPEG4/ISO/AVCПродолжительность                        : 1 ч. 41 м.Битрейт                                  : 9244 Кбит/секШирина                                   : 1920 пикселейВысота                                   : 1080 пикселейСоотношение сторон                       : 16:9Режим частоты кадров                     : ПостоянныйЧастота кадров                           : 23,976 (24000/1001) кадра/секЦветовое пространство                    : YUVСубдискретизация насыщенности            : 4:2:0Битовая глубина                          : 8 битТип развёртки                            : ПрогрессивнаяБит/(Пиксели*Кадры)                      : 0.186Размер потока                            : 6,42 Гбайт (82%)Библиотека кодирования                   : x264 core 157 r2932 303c484Настройки программы                      : cabac=1 / ref=4 / deblock=1:-3:-3 / analyse=0x3:0x113 / me=umh / subme=8 / psy=1 / psy_rd=1.00:0.00 / mixed_ref=1 / me_range=32 / chroma_me=1 / trellis=2 / 8x8dct=1 / cqm=0 / deadzone=21,11 / fast_pskip=1 / chroma_qp_offset=-2 / threads=34 / lookahead_threads=5 / sliced_threads=0 / nr=0 / decimate=1 / interlaced=0 / bluray_compat=0 / constrained_intra=0 / bframes=3 / b_pyramid=2 / b_adapt=2 / b_bias=0 / direct=3 / weightb=1 / open_gop=0 / weightp=2 / keyint=240 / keyint_min=24 / scenecut=40 / intra_refresh=0 / rc_lookahead=50 / rc=2pass / mbtree=1 / bitrate=9244 / ratetol=1.0 / qcomp=0.60 / qpmin=0 / qpmax=69 / qpstep=4 / cplxblur=20.0 / qblur=0.5 / ip_ratio=1.40 / aq=3:0.80Язык                                     : EnglishDefault                                  : ДаForced                                   : НетАудио #1Идентификатор                            : 2Формат                                   : AC-3Формат/Информация                        : Audio Coding 3Коммерческое название                    : Dolby DigitalИдентификатор кодека                     : A_AC3Продолжительность                        : 1 ч. 41 м.Вид битрейта                             : ПостоянныйБитрейт                                  : 192 Кбит/секКаналы                                   : 2 каналаChannel layout                           : L RЧастота                                  : 48,0 КГцЧастота кадров                           : 31,250 кадров/сек (1536 SPF)Битовая глубина                          : 16 битМетод сжатия                             : С потерямиРазмер потока                            : 140 Мбайт (2%)Заголовок                                : Профессиональный (дублированный) Че!Язык                                     : RussianServiceKind/String                       : Complete MainDefault                                  : ДаForced                                   : НетАудио #2Идентификатор                            : 3Формат                                   : DTSФормат/Информация                        : Digital Theater SystemsИдентификатор кодека                     : A_DTSПродолжительность                        : 1 ч. 41 м.Вид битрейта                             : ПостоянныйБитрейт                                  : 1509 Кбит/секКаналы                                   : 6 каналовChannel layout                           : C L R Ls Rs LFEЧастота                                  : 48,0 КГцЧастота кадров                           : 93,750 кадра/сек (512 SPF)Битовая глубина                          : 24 битМетод сжатия                             : С потерямиРазмер потока                            : 1,07 Гбайт (14%)Язык                                     : EnglishDefault                                  : НетForced                                   : НетТекст #1Идентификатор                            : 4Формат                                   : UTF-8Идентификатор кодека                     : S_TEXT/UTF8Идентификатор кодека/Информация          : UTF-8 Plain TextЯзык                                     : EnglishDefault                                  : НетForced                                   : НетТекст #2Идентификатор                            : 5Формат                                   : UTF-8Идентификатор кодека                     : S_TEXT/UTF8Идентификатор кодека/Информация          : UTF-8 Plain TextЗаголовок                                : SDHЯзык                                     : EnglishDefault                                  : НетForced                                   : НетМеню00:00:00.000                             : en:00:00:00.00000:06:24.134                             : en:00:06:24.13400:13:16.796                             : en:00:13:16.79600:15:57.623                             : en:00:15:57.62300:17:34.303                             : en:00:17:34.30300:22:11.288                             : en:00:22:11.28800:27:51.211                             : en:00:27:51.21100:33:47.776                             : en:00:33:47.77600:39:04.676                             : en:00:39:04.67600:43:53.047                             : en:00:43:53.04700:49:46.108                             : en:00:49:46.10800:53:49.518                             : en:00:53:49.51801:00:51.648                             : en:01:00:51.64801:07:23.456                             : en:01:07:23.45601:12:03.152                             : en:01:12:03.15201:18:39.381                             : en:01:18:39.38101:21:26.715                             : en:01:21:26.71501:25:23.994                             : en:01:25:23.99401:30:36.514                             : en:01:30:36.51401:36:59.897                             : en:01:36:59.897

Скриншот c названием фильма

Скриншоты

Чтобы скачать этот контент, Вам необходимо:
1. Скачать и установить торрент-клиент [клик для Windows], (для мобильного найдите на Play Маркет).
2. Кликнуть по [Скачать]


Внимание.
Если проверка ВЫ НЕ РОБОТ - не работает, значит Вы используете устаревший браузер.
Установите актуальный браузер и повторно кликните по [Скачать]
Безопасность: торрент-клиент разрешён АВ Касперского.

[asmlocator.ru].t665790.torrent 
Торрент: Зарегистрирован [ 2019-09-25 23:25 ] · 13113DE8144BCC608654C18A7A9F57D3BF4A3BCB

Скачать .torrent

Скачать

39 KB

Статус: проверено
Скачан: 0 раз
Размер: 7,79 GB
terms.php
[Профиль] [ЛС]
Показать сообщения:    
Ответить на тему

Текущее время: 14-Окт 20:09

Часовой пояс: UTC ± 0



Вы не можете начинать темы
Вы не можете отвечать на сообщения
Вы не можете редактировать свои сообщения
Вы не можете удалять свои сообщения
Вы не можете голосовать в опросах
Вы не можете прикреплять файлы к сообщениям
Вы можете скачивать файлы
Верим фактам, а не вранью Путина! Факт, что Правительство ведёт Россию к истреблению.
Так как численность населения падает, даже не смотря на приток эмигрантов!
Русская нация вымирает и вырождается, смешиваясь с эмигрантами!
Факт, что военных и граждан предприятий заставляют голосовать за партию Единая Россия и Путина
ПОД СТРАХОМ УВОЛЬНЕНИЯ!
Нам не нужно Правительство, блокирующее личную жизнь, интернет, нарушающее сохранность данных.
Все эти действия финансируются за счёт народа!