Дом, который построил Джек / The House That Jack Built (Ларс фон Триер / Lars von Trier) [2018, Дания, Франция, Швеция, Германия, Бельгия, Ужасы, триллер, драма, комедия, DVD9] Dub (R5) + Sub Rus + Original Eng

Ответить на тему
Статистика раздачи
Размер:  6,9 GB   |    Зарегистрирован:  2 месяца 9 дней   |    Скачан:  0 раз

Полного источника не было: Никогда

 
   
 
 
Автор Сообщение

star21 ®

Пол: Женский

Стаж: 4 года 1 месяц

Сообщений: 551946

Откуда: Екатеринбург

Создавать темы 25-Сен-2019 23:25

[Цитировать]

Дом, который построил Джек / The House That Jack Built Страна: Дания, Франция, Швеция, Германия, Бельгия
Студия: Zentropa Entertainments, Centre National du Cinéma et de l'Image, Copenhagen Film Fund
Жанр: Ужасы, триллер, драма, комедия
Год выпуска: 2018
Продолжительность: 02:26:04Перевод: Профессиональный (дублированный) | R5 Russian World Vision
Субтитры: русские
Оригинальная аудиодорожка: английскийРежиссер: Ларс фон Триер / Lars von TrierВ ролях:
Мэтт Диллон, Бруно Ганц, Ума Турман, Шиван Фэллон, Софи Гробёль, Райли Кио, Джереми Дэвис, Джек МакКензи, Эдвард Спелирс, Дэвид БэйлиОписание:
Много ли мы на самом деле знаем о тех, кто нас окружает? Простой инженер, тихий и миролюбивый парень может оказаться серийным убийцей. Еще в середине 70-х годов, вся Америка содрогалась от ужаса, когда в очередной раз в новостях показывали жестоко убитую девушку, тело которой с трудом можно было опознать. Полиция многие годы охотилась на маньяка, но удалось поймать мужчину только недавно. Людям предстоит узнать об истории инженера по имени Джек, который столько лет заманивал женщин в свой фургон, чтобы зверски поиздеваться над телом жертвы. Джек повествует о своей прошлой жизни, полной жестокости и несправедливости, из-за которой он стал убивать людей.«Через пять лет после «Нимфоманки»». Новый шедевр самого непредсказуемого режиссёра современности - Ларса Фон Триера. Удостоенного шести премий Канского МКФ, включая «Золотую пальмовую ветвь», пяти премий Европейской киноакадемии, премии «Сезар» и других почётных наград. Номинированного на премии «Оскар» и «Золотой глобус». «…жизнь зла и бездушна, что печально доказано возвышением Homo Trumpus (Дональда Трампа)…» (Ларс Фон Триер).| IMDb | КиноПоиск | Скачать сэмпл |За предоставленный DVD, огромное спасибо AKIM2BДополнительные материалы:
- Ролик
- Фотоальбом
- АртбукМеню: Есть, статичное, озвученное, на русском языкеТип релиза: DVD9
Контейнер: DVD-VideoВидео: PAL 16:9 (720x576) VBR Auto Letterboxed, ~ 6526.24 kbps avg, fps 25.000
Аудио 1: Russian (Dolby AC3, 6 ch) | AC3, 3/2 (L,C,R,SL,SR)+LFE ch, 448 kbps, 48.0 kHz, 16 bits
Аудио 2: English (Dolby AC3, 6 ch) | AC3, 3/2 (L,C,R,SL,SR)+LFE ch, 448 kbps, 48.0 kHz, 16 bits
Формат субтитров: prerendered (DVD/IDX+SUB)

MediaInfo

Title: Dom.kotorii.postroil.Djek.2018.DVD9Size: 6.90 Gb ( 7 237 968,00 KBytes ) - DVD-9Enabled regions: 1, 2, 3, 4, 5, 6, 7, 8VTS_01 :  Play Length: 00:00:15  Video: PAL 4:3 (720x576) VBR  Audio:      Not specified, AC3, 2/0 (L,R) ch, 192 kbps, Delay 0 mSecVTS_02 :  Play Length: 00:00:04  Video: PAL 16:9 (720x576) VBR, Auto Letterboxed  Audio:      Not specified, AC3, 2/0 (L,R) ch, 192 kbps, Delay 0 mSecVTS_03 :  Play Length: 00:02:42  Video: PAL 16:9 (720x576) VBR, Auto Letterboxed  Audio:      Russian, AC3, 2/0 (L,R) ch, 192 kbps, Delay 0 mSec  Subtitles:      RussianVTS_04 :  Play Length: 00:00:50  Video: PAL 16:9 (720x576) VBR, Auto Letterboxed  Audio:      Russian, AC3, 2/0 (L,R) ch, 192 kbps, Delay 0 mSec  Subtitles:      RussianVTS_05 :  Play Length: 00:00:45  Video: PAL 16:9 (720x576) VBR, Auto Letterboxed  Audio:      Russian, AC3, 2/0 (L,R) ch, 192 kbps, Delay 0 mSec  Subtitles:      RussianVTS_06 :  Play Length: 02:26:04  Video: PAL 16:9 (720x576) VBR, Auto Letterboxed  Audio:      Russian, AC3, 3/2 (L,C,R,SL,SR)+LFE ch, 448 kbps, Delay 0 mSec      English, AC3, 3/2 (L,C,R,SL,SR)+LFE ch, 448 kbps, Delay 0 mSec  Subtitles:      RussianVTS_07 :  Play Length: 00:00:01  Video: PAL 16:9 (720x576) VBR, Auto Letterboxed  Audio:      Russian, AC3, 2/0 (L,R) ch, 192 kbps, Delay 0 mSec      English, AC3, 2/0 (L,R) ch, 192 kbps, Delay 0 mSec  Subtitles:      Russian      Russian========================================================Dom.kotorii.postroil.Djek.2018.DVD9\VIDEO_TS\VTS_06_3.VOBФормат                                   : MPEG-PSРазмер файла                             : 1000 МбайтПродолжительность                        : 21 м. 26 с.Режим общего битрейта                    : ПеременныйОбщий поток                              : 6518 Кбит/секВидеоИдентификатор                            : 224 (0xE0)Формат                                   : MPEG VideoВерсия формата                           : Version 2Профиль формата                          : Main@MainНастройки формата                        : BVOPПараметр BVOP формата                    : ДаПараметр матрицы формата                 : По умолчаниюПараметр GOP формата                     : M=3, N=12Продолжительность                        : 21 м. 26 с.Вид битрейта                             : ПеременныйБитрейт                                  : 5493 Кбит/секМаксимальный битрейт                     : 7500 Кбит/секШирина                                   : 720 пикселейВысота                                   : 576 пикселейСоотношение сторон                       : 16:9Частота кадров                           : 25,000 кадров/секСтандарт вещания                         : PALЦветовое пространство                    : YUVСубдискретизация насыщенности            : 4:2:0Битовая глубина                          : 8 битТип развёртки                            : ПрогрессивнаяМетод сжатия                             : С потерямиБит/(Пиксели*Кадры)                      : 0.530Временной код первого кадра              : 00:42:47:20Оригинал временного кода                 : Group of pictures headerGOP, открыто/закрыто                     : ОткрытоРазмер потока                            : 843 Мбайт (84%)Аудио #1Идентификатор                            : 189 (0xBD)-128 (0x80)Формат                                   : AC-3Формат/Информация                        : Audio Coding 3Коммерческое название                    : Dolby DigitalРежим смешивания                         : DVD-VideoПродолжительность                        : 21 м. 26 с.Вид битрейта                             : ПостоянныйБитрейт                                  : 448 Кбит/секКаналы                                   : 6 каналовChannelLayout                            : L R C LFE Ls RsЧастота                                  : 48,0 КГцЧастота кадров                           : 31,250 кадров/сек (1536 SPF)Битовая глубина                          : 16 битМетод сжатия                             : С потерямиЗадержка видео                           : -456 мс.Размер потока                            : 68,7 Мбайт (7%)ServiceKind/String                       : Complete MainАудио #2Идентификатор                            : 189 (0xBD)-129 (0x81)Формат                                   : AC-3Формат/Информация                        : Audio Coding 3Коммерческое название                    : Dolby DigitalРежим смешивания                         : DVD-VideoПродолжительность                        : 21 м. 26 с.Вид битрейта                             : ПостоянныйБитрейт                                  : 448 Кбит/секКаналы                                   : 6 каналовChannelLayout                            : L R C LFE Ls RsЧастота                                  : 48,0 КГцЧастота кадров                           : 31,250 кадров/сек (1536 SPF)Битовая глубина                          : 16 битМетод сжатия                             : С потерямиЗадержка видео                           : -456 мс.Размер потока                            : 68,7 Мбайт (7%)ServiceKind/String                       : Complete MainТекст #1Идентификатор                            : 189 (0xBD)-32 (0x20)Формат                                   : RLEФормат/Информация                        : Run-length encodingРежим смешивания                         : DVD-VideoПродолжительность                        : 21 м. 19 с.Задержка видео                           : 4 с. 680 мс.Текст #2Идентификатор                            : 189 (0xBD)-33 (0x21)Формат                                   : RLEФормат/Информация                        : Run-length encodingРежим смешивания                         : DVD-VideoПродолжительность                        : 21 м. 19 с.Задержка видео                           : 4 с. 680 мс.Меню

Скриншоты меню

Скриншоты

Скриншоты доп. материалов

Чтобы скачать этот контент, Вам необходимо:
1. Скачать и установить торрент-клиент [клик для Windows], (для мобильного найдите на Play Маркет).
2. Кликнуть по [Скачать]


Внимание.
Если проверка ВЫ НЕ РОБОТ - не работает, значит Вы используете устаревший браузер.
Установите актуальный браузер и повторно кликните по [Скачать]
Безопасность: торрент-клиент разрешён АВ Касперского.

[asmlocator.ru].t665784.torrent 
Торрент: Зарегистрирован [ 2019-09-25 23:25 ] · F6CD035EB179224F88D94584A6CFD460FD21CE18

Скачать .torrent

Скачать

37 KB

Статус: проверено
Скачан: 0 раз
Размер: 6,9 GB
terms.php
[Профиль] [ЛС]
Показать сообщения:    
Ответить на тему

Текущее время: 05-Дек 21:00

Часовой пояс: UTC ± 0



Вы не можете начинать темы
Вы не можете отвечать на сообщения
Вы не можете редактировать свои сообщения
Вы не можете удалять свои сообщения
Вы не можете голосовать в опросах
Вы не можете прикреплять файлы к сообщениям
Вы можете скачивать файлы
Верим фактам, а не вранью Путина! Факт, что Правительство ведёт Россию к истреблению.
Так как численность населения падает, даже не смотря на приток эмигрантов!
Русская нация вымирает и вырождается, смешиваясь с эмигрантами!
Факт, что военных и граждан предприятий заставляют голосовать за партию Единая Россия и Путина
ПОД СТРАХОМ УВОЛЬНЕНИЯ!
Нам не нужно Правительство, блокирующее личную жизнь, интернет, нарушающее сохранность данных.
Все эти действия финансируются за счёт народа!