Как ребенка вырастить счастливым (3 части) (Сергей Андрюшкин) [2006, психолого-педагогический, DVDRip]

Ответить на тему
Статистика раздачи
Размер:  877 MB   |    Зарегистрирован:  2 месяца 18 дней   |    Скачан:  0 раз

Полного источника не было: Никогда

 
   
 
 
Автор Сообщение

star21 ®

Пол: Женский

Стаж: 4 года 1 месяц

Сообщений: 551946

Откуда: Екатеринбург

Создавать темы 23-Сен-2019 00:25

[Цитировать]

Как ребенка вырастить счастливым Дата/Год выпуска: 2006
Страна: Россия
Жанр: психолого-педагогический
Продолжительность: 3 х ~ 00:50:00
Перевод: Не требуется
Русские субтитры: нет
Оригинальная аудиодорожка: русский
Режиссер: Сергей АндрюшкинОписание: Каждый из родителей желает вырастить своего ребёнка, оберегая от множества опасностей и ошибок, но мало кто знает, как это сделать правильно. Поэтому иногда вместо помощи дети получают неизлечимые психологические травмы, которые негативно сказываются на их будущей семейной жизни. В нашем фильме рассказывается, как создать в семье здоровый морально-психологический климат, необходимый для успешного формирования личности ребёнка. Поднимаются вопросы взаимоотношений супругов, родителей и детей, даются практические советы, без использования которых счастье семьи может оказаться невозможным. Видеоматериал состоит из трёх отдельных фильмов, каждый посвящён определённому этапу взросления, который проходит ребёнок от рождения до юношества.качество: DVDRip
формат: AVI
Видео: XviD
Аудио: MP3

Список выпусков/серий

Воспитание ребенка до 3-х лет

качество: DVDRip
формат: AVI
Видео: MPEG4, XviD, 720x544 (4:3), 25.000 fps, 602 Kbps (0.061 bit/pixel)
Аудио: MP3, 48.0 KHz, 2 ch, 160 Kbps, CBR

Воспитание ребенка от 3-х до 8-и лет

качество: DVDRip
формат: AVI
Видео: MPEG4, XviD, 720x544 (4:3), 25.000 fps, 618 Kbps (0.063 bit/pixel)
Аудио: MP3, 48.0 KHz, 2 ch, 160 Kbps, CBR

Воспитание ребенка школьного возраста

качество: DVDRip
формат: AVI
Видео: MPEG4, XviD, 720x544 (4:3), 25.000 fps, 533 Kbps (0.054 bit/pixel)
Аудио: MP3, 48.0 KHz, 2 ch, 160 Kbps, CBR

MediaInfo

GeneralComplete name                            : C:\Users\User\Downloads\Как ребенка вырастить счастливым\01.aviFormat                                   : AVIFormat/Info                              : Audio Video InterleaveFile size                                : 290 MiBDuration                                 : 52mn 14sOverall bit rate                         : 775 KbpsVideoID                                       : 0Format                                   : MPEG-4 VisualFormat profile                           : Advanced Simple@L5Format settings, BVOP                    : 1Format settings, QPel                    : NoFormat settings, GMC                     : No warppointsFormat settings, Matrix                  : Default (H.263)Codec ID                                 : XVIDCodec ID/Hint                            : XviDDuration                                 : 52mn 14sBit rate                                 : 602 KbpsWidth                                    : 720 pixelsHeight                                   : 544 pixelsDisplay aspect ratio                     : 4:3Frame rate                               : 25.000 fpsColor space                              : YUVChroma subsampling                       : 4:2:0Bit depth                                : 8 bitsScan type                                : ProgressiveCompression mode                         : LossyBits/(Pixel*Frame)                       : 0.061Stream size                              : 225 MiB (78%)Writing library                          : XviD 1.2.1 (UTC 2008-12-04)AudioID                                       : 1Format                                   : MPEG AudioFormat version                           : Version 1Format profile                           : Layer 3Mode                                     : Joint stereoMode extension                           : MS StereoCodec ID                                 : 55Codec ID/Hint                            : MP3Duration                                 : 52mn 14sBit rate mode                            : ConstantBit rate                                 : 160 KbpsChannel(s)                               : 2 channelsSampling rate                            : 48.0 KHzCompression mode                         : LossyDelay relative to video                  : 40msStream size                              : 59.8 MiB (21%)Alignment                                : Aligned on interleavesInterleave, duration                     : 24 ms (0.60 video frame)Interleave, preload duration             : 504 msWriting library                          : LAME3.98.2

Скриншоты

Чтобы скачать этот контент, Вам необходимо:
1. Скачать и установить торрент-клиент [клик для Windows], (для мобильного найдите на Play Маркет).
2. Кликнуть по [Скачать]


Внимание.
Если проверка ВЫ НЕ РОБОТ - не работает, значит Вы используете устаревший браузер.
Установите актуальный браузер и повторно кликните по [Скачать]
Безопасность: торрент-клиент разрешён АВ Касперского.

[asmlocator.ru].t665725.torrent 
Торрент: Зарегистрирован [ 2019-09-23 00:25 ] · 82EA50AA0C1E5D6AAFC11B6ECD297F508565D5AE

Скачать .torrent

Скачать

18 KB

Статус: проверено
Скачан: 0 раз
Размер: 877 MB
terms.php
[Профиль] [ЛС]
Показать сообщения:    
Ответить на тему

Текущее время: 11-Дек 04:18

Часовой пояс: UTC ± 0



Вы не можете начинать темы
Вы не можете отвечать на сообщения
Вы не можете редактировать свои сообщения
Вы не можете удалять свои сообщения
Вы не можете голосовать в опросах
Вы не можете прикреплять файлы к сообщениям
Вы можете скачивать файлы
Верим фактам, а не вранью Путина! Факт, что Правительство ведёт Россию к истреблению.
Так как численность населения падает, даже не смотря на приток эмигрантов!
Русская нация вымирает и вырождается, смешиваясь с эмигрантами!
Факт, что военных и граждан предприятий заставляют голосовать за партию Единая Россия и Путина
ПОД СТРАХОМ УВОЛЬНЕНИЯ!
Нам не нужно Правительство, блокирующее личную жизнь, интернет, нарушающее сохранность данных.
Все эти действия финансируются за счёт народа!